Tutnet-fufla

Объявление

Введите здесь ваше объявление.

Информация о пользователе

Привет, Гость! Войдите или зарегистрируйтесь.


Вы здесь » Tutnet-fufla » Аркадий Северный Записи и концерты » Аркадий Северный и Н.Резанов-Соло для двух гитар(Южный вариант) 1980


Аркадий Северный и Н.Резанов-Соло для двух гитар(Южный вариант) 1980

Сообщений 1 страница 5 из 5

1

Оцифровка - Cyppress Hill
Спасибо.

Аркадий Северный и Н.Резанов-Соло для двух гитар(Южный вариант) 1980 [WAV]

Жанр: Подпольная песня
Носитель: MB
Год выпуска: 1980
Лейбл: Самиздат
Страна-производитель:СССР
Аудио кодек: WAV
Тип рипа: track
Формат записи: 24/96
Формат раздачи: 24/96
Продолжительность: 32:47+30:51
Размер: 1,1Гб + 0,99Гб
Устройство воспроизведения: Ростов-105С1
АЦП: Juli@+MC_Aiwa ADF850(в качестве усилителя и регулятора сигнала)
Программа-"шифровщик":SF10
Обработка: Без обработки

Сторона А:
01.Вступление (Н.Резанов и АС)
02.Синее, зеленое, красное, лиловое... (АС и НР)
03.Ты меня когда-нибудь увидишь... (АС и НР)
04.Ты уехала на далекий срок... (А.Северный)
05.Мне даже в мыслях не найти... (Н.Резанов)
06.Били стрелки часов на слепой стене... (Н. Резанов)
07.Вьюжится от холода ночь... (А.Северный)
08.Не рассказывай мне про БАМ... (АС и НР)
09.Последний бросок и в ножны клинок... (АС и НР)
10.К чему скрывать, что страсть остыть успела... (А.Северный)
11.Позабуду тебя, позабуду.../смикшир/

Сторона Б:
11.Позабуду тебя, позабуду... (А.Северный)
12.Окончен путь, устала грудь... (АС и НР)
13.За казенным столом, за зеленым сукном... (Н. Резанов)
14.Как под Ростовом-на-Дону... (АС и НР)
15.После встряски в жизни моей... (Н. Резанов)
16.Даже берег Лазурного моря... (А.Северный)
17.До свиданья, друг мой, до свиданья... (Н. Резанов)
18.Как хотел бы я стать Есениным... (А.Северный)
19.Ты меня когда-нибудь увидишь... (А.Северный)
20.Жду тебя, приди скорее... (Н. Резанов)
21.Разбуди меня завтра рано... (А.Северный)

Скачать:

WAV (24bit/96kHz):

Северный и Резанов под две гитары.cue

https://yadi.sk/mail/?hash=Kb2teEOuMoHqgks5/UZ6QicLjj83r4bOPYTPPlFPv2g=

https://yadi.sk/mail/?hash=HDlvrLGB6npWMEWIngg3MrWeAL0AisEa0ACBdskCoFA=



Код:
REM GENRE "Блатняк"
REM DATE 1980
REM COMMENT "Оцифровка - Cyppress Hill"
TITLE "Соло для двух гитар"
PERFORMER "Аркадий Северный и Николай Резанов"
FILE "А.Северный+Н.Резанов_Соло для двух гитар_1ст.wav" WAVE
  TRACK 01 AUDIO
TITLE "Вступление"
PERFORMER "Аркадий Северный и Н. Резанов"
    INDEX 01 00:09:50
  TRACK 02 AUDIO
TITLE "Синее, зеленое, красное, лиловое..."
PERFORMER "Аркадий Северный и Н. Резанов"
    INDEX 01 01:17:58
  TRACK 03 AUDIO
TITLE "Ты меня когда-нибудь увидишь..."
PERFORMER "Аркадий Северный и Н. Резанов"
    INDEX 01 04:26:27
  TRACK 04 AUDIO
TITLE "Ты уехала на далекий срок..."
PERFORMER "Аркадий Северный"
    INDEX 01 07:50:30
  TRACK 05 AUDIO
TITLE "Мне даже в мыслях не найти..."
PERFORMER "Николай Резанов"
    INDEX 01 11:05:01
  TRACK 06 AUDIO
TITLE "Били стрелки часов на слепой стене..."
PERFORMER "Николай Резанов"
    INDEX 01 12:48:69
  TRACK 07 AUDIO
TITLE "Вьюжится от холода ночь..."
PERFORMER "Аркадий Северный"
    INDEX 01 15:20:42
  TRACK 08 AUDIO
TITLE "Не рассказывай мне про БАМ..."
PERFORMER "Аркадий Северный и Н. Резанов"
    INDEX 01 19:41:47
  TRACK 09 AUDIO
TITLE "Последний бросок и в ножны клинок..."
PERFORMER "Аркадий Северный и Н. Резанов"
    INDEX 01 23:06:47
  TRACK 10 AUDIO
TITLE "К чему скрывать, что страсть остыть успела..."
PERFORMER "Аркадий Северный"
    INDEX 01 26:30:15
  TRACK 11 AUDIO
TITLE "Позабуду тебя, позабуду.../смикшир/"
PERFORMER "Аркадий Северный"
    INDEX 01 30:05:05
FILE "А.Северный+Н.Резанов_Соло для двух гитар_2ст.wav" WAVE
  TRACK 12 AUDIO
TITLE "Позабуду тебя, позабуду..."
PERFORMER "Аркадий Северный"
    INDEX 01 00:09:36
  TRACK 13 AUDIO
TITLE "Окончен путь, устала грудь..."
PERFORMER "Аркадий Северный и Н. Резанов"
    INDEX 01 04:06:11
  TRACK 14 AUDIO
TITLE "За казенным столом, за зеленым сукном..."
PERFORMER "Николай Резанов"
    INDEX 01 08:15:24
  TRACK 15 AUDIO
TITLE "Как под Ростовом-на-Дону..."
PERFORMER "Аркадий Северный и Н. Резанов"
    INDEX 01 10:39:10
  TRACK 16 AUDIO
TITLE "После встряски в жизни моей..."
PERFORMER "Николай Резанов"
    INDEX 01 11:44:43
  TRACK 17 AUDIO
TITLE "Даже берег Лазурного моря..."
PERFORMER "Аркадий Северный"
    INDEX 01 13:28:68
  TRACK 18 AUDIO
TITLE "До свиданья, друг мой, до свиданья..."
PERFORMER "Николай Резанов"
    INDEX 01 17:28:19
  TRACK 19 AUDIO
TITLE "Как хотел бы я стать Есениным..."
PERFORMER "Аркадий Северный"
    INDEX 01 18:39:45
  TRACK 20 AUDIO
TITLE "Ты меня когда-нибудь увидишь..."
PERFORMER "Аркадий Северный"
    INDEX 01 22:04:03
  TRACK 21 AUDIO
TITLE "Жду тебя, приди скорее..."
PERFORMER "Николай Резанов"
    INDEX 01 25:47:00
  TRACK 22 AUDIO
TITLE "Разбуди меня завтра рано..."
PERFORMER "Аркадий Северный"
    INDEX 01 27:32:16

0

2

Вопросец созрел. Что есть такое - (Южный вариант)?
Разжуйте плиз на пальцах ежли не трудно.....

0

3

Юрик
Гость Этот вопрос задавали человеку на вт. Я понял что он так подписывает для себя
а толком не знаю .

0

4

http://savepic.ru/11972345.jpg

Исполнитель:АРКАДИЙ СЕВЕРНЫЙ И НИКОЛАЙ РЕЗАНОВ
Название:"СОЛО ДЛЯ ДВУХ ГИТАР"(при участии В.Тихомирова)
Год:1980 март
Формат:mp3
Качество звука:320
Количество композиций:21
Размер:143,6 МВ

1. ВСТУПЛЕНИЕ
2. СИНЕЕ, ЗЕЛЕНОЕ...
3. ТЫ МЕНЯ КОГДА-НИБУДЬ УВИДИШЬ...(ВАРИАНТ1)
4. ТЫ УЕХАЛА НА ДАЛЕКИЙ СРОК...
5. МНЕ ДАЖЕ В МЫСЛЯХ НЕ НАЙТИ...
6. БИЛИ СТРЕЛКИ ЧАСОВ …(авт.А.Галич)
7. ВЬЮЖИТСЯ ОТ ХОЛОДА НОЧЬ...
8. НЕ РАССКАЗЫВАЙ МНЕ ПРО БАМ...
9. ПОСЛЕДНИЙ БРОСОК
10.ЦЫГАНСКИЙ РОМАНС
11. ПОЗАБУДУ ТЕБЯ, ПОЗАБУДУ...
12. ОКОНЧЕН ПУТЬ
13. ЗА КАЗЕННЫМ СТОЛОМ...
14. КАК ПОД РОСТОВОМ-НА-ДОНУ...
15. ПОСЛЕ ВСТРЯСКИ В ЖИЗНИ МОЕЙ...
16. ДАЖЕ БЕРЕГ ЛАЗУРНОГО МОРЯ...
17. ДО СВИДАНЬЯ, ДРУГ МОЙ, ДО СВИДАНЬЯ...
18. КАК ХОТЕЛ БЫ Я СТАТЬ ЕСЕНИНЫМ...
19. ТЫ МЕНЯ КОГДА-НИБУДЬ УВИДИШЬ...(ВАРИАНТ2)
20. ЖДУ ТЕБЯ, ПРИДИ СКОРЕЕ...
21. РАЗБУДИ МЕНЯ ЗАВТРА РАНО..

http://yadi.sk/d/vek-fCZT3cB1k

0

5

Данную оц прислал
Модератор Lenin Sity находясь в ссылке Вся сетевая этика соблюдена . Один вопрос у меня
к этому большевику ....А от куда такое название ????? и где производилась полиграфия ..

Свернутый текст

http://sh.uploads.ru/wvNmQ.jpg

*****
А.Северный и Н.Резанов "Последний концерт" - 1980г., WAV, 621 Mb,

Исполнитель: А.Северный и Н.Резанов
Альбом: Последний концерт
Год выпуска: 1980
Жанр: Подпольная музыка
Формат: FLAK
Качество: Losless
Размер: 393Mb

Трек-лист:
01.Интро+Синее,зеленое.wav         
   02.Ты меня когда-нибудь увидишь.wav
   03.Ты уехала на далекий срок.wav   
   04.Мне даже в мыслях.wav           
   05.Били стрелки часов.wav         
   06.Вьюжится от холода ночь.wav     
   07.Не рассказывай мне про БАМ.wav 
   08.Интро+Последний бросок.wav     
   09.К чему скрывать.wav             
   10.Позабуду тебя,позабуду.wav     
   11.Окончен путь.wav               
   12.За казенным столом.wav         
   13.Как под Ростовом - на - Дону.wav
   14.После встряски в жизни моей.wav
   15.Даже берег лазурного моря.wav   
   16.До свиданья, друг мой, до свиданья
   17.Как хотел бы стать Есениным.wav
   18.Ты меня когда-нибудь увидишь.wav
   19.Жду тебя, приди скорее.wav     
   20.Разбуди меня завтра рано.wav 

https://cloud.mail.ru/public/7RmD/M1EkuA6Km

  "Последний концерт" А.Северного 

Действительно последний и точно уже не крайний, как говорят летуны.
Датирован 5 марта 1980 года средой, примерно за месяц до смерти Аркадия, ранее проходило и 11 марта.  Но с учётом, что собралась такая солидная компания,  рабочий день не вписывается никак. Может 1-2 марта или 8-9 марта,  выходные дни больше подошли бы.  К записи явно не готовились, концерт был записан на советскую бобину.

На записи были (по версии Лоова):
А.Северный - вокал
Н.Резанов - вокал, гитара
В.Тихомиров - гитара

Гости: Дмитрий Раменский (родной сын В.Раменского), В.Мазурин, Г.Яновский, Н.Корниенко, Г.Солдатенков, И.Кадников, И.Боровик

Е.Раменская - квартира
В.Н.Раменский - запись  (Лоов утверждает Маклаков)

По составу делегации есть некие сомнения:
1.Среди гостей Г.Яновский якобы был.   Но для чего его приглашали, а если он был, то должен был спеть.  В тандеме с Яновским был якобы некий И.Боровик, которого Геннадий учил игре на барабанах.     В одном из интервью И.Боровик утверждал, что это именно он писал Последний концерт???

2.Известно, что С.Маклаков гитарники не любил и почти не писал.
А тут по одной из версий именно он писал, да еще на советскую бобину, маловероятно.

3.Приемный сын В.Раменского Сергей как-то утверждал, что на последний концерт "собрались четыре друга": Северный, Резанов, Тихомиров и Раменский и всё. Но Сергея то там не было.  Значит, с чьего-то рассказа говорил.  А может просто первую песню слышал где Резанов перечисляет присутствующих?

Больше вопросов чем ответов.

Н.Резанов грустным, уставшим голосом говорит, что посвящают этот маленький концерт Есенину 70-х - Владимиру Раменскому, что теперь встречаются они все очень редко.
И в продолжение этим словам Резанов вместе с Северным исполнили "Окончен путь, устала грудь"... Пророческая песня.
А Северный ещё и завершает "Разбуди меня завтра рано..." про маму.
Так это и есть самая последняя официальная песня Аркадия Северного?

Аркадий в последние месяцы выглядел не очень, поэтому на  обложку я взял более раннюю фотографию.  Пускай он остаётся в нашей памяти весёлым и жизнерадостным. Я и псевдоним Аркадия не пишу на обложке,  а разве можно спутать Северного с кем-то.

По старому трек-листу трек №10 "Позабуду тебя позабуду" и трек №11 "Я не верю что мы любили"
фактически одна и та же песня, мы их склеили.

Оцифровка tdc 2005   
Помощь 73dimas
Работа со звуком Leonidet

0


Вы здесь » Tutnet-fufla » Аркадий Северный Записи и концерты » Аркадий Северный и Н.Резанов-Соло для двух гитар(Южный вариант) 1980