Это интересно Скрыть

Tutnet-fufla

Объявление

Информация о пользователе

Привет, Гость! Войдите или зарегистрируйтесь.


Вы здесь » Tutnet-fufla » Аркадий Северный Записи и концерты » Аркадий Северный. - Для Жоры Миргородского (1978) Lossless


Аркадий Северный. - Для Жоры Миргородского (1978) Lossless

Сообщений 1 страница 10 из 10

1

Даннвя записи не украдены .а Приватезирована у Спившегося Админа ВТ дмирия
Удалять ничего не буду ........
Все благодарности Андрею Шалягину
Спасибо

Аркадий Северный. Для Жоры Миргородского (1978) Lossless

Жанр: Шансон
Год выпуска: 1978
Лейбл: СамИздат
Страна-производитель: СССР
Аудио кодек: FLAC
Тип рипа: image+.cue
Формат записи: 24/192
Формат раздачи: 24/192
Продолжительность: 41:41+43:19

Треклист:

Сторона А:
01. У подъездного трамвая сидит Дуня чумовая...
02. Гоп-со-смыком - песня интересна...
03. В одной из квартирочек пришлось мне побывать...
04. Вот тихо не слышно ни шума кругом, и только идет спотыкаясь...
05. Расскажу вам, кому чего снится, по профессии всё вам приснится...
06. Начинаем представленье, начинаем песни петь...
07. Не ходи ты так поздно из дому, шулеров за собой не води...
08. Океан шумит, играет, мерно плещется волна... (В. Коцишевский)
09. На Сосновке есть наш старый дом, где живём с Алёшкой мы вдвоём...
10. Настроил гитару под ёб твою мать, пошёл по бульвару жмурей собирать...
11. Один воинственный вассал, вокруг весь замок обошёл...
12. Весна наступает как в сказке старинной, и звезды умазаны в голубой небосвод...

Сторона B:
13. Где слова, где слова отыскать мне такие, чтобы ими тебя отогреть навсегда... (В. Коцишевский)
14. Меня милый прижимал, стоя у завалинки...
15. Она была первой, первой, первой...
16. Ты мне не снилась в моих глазах, с такой красивой я не в ладах...
17. Идёт балет “Лебединое озеро”...
18. Итак, Одесса, Дерибасовская...
19. Это дело было поздней осенькой, с неба мелкий дождик моросил...
20. Мы теперь уходим понемногу в ту страну, где тишь и благодать... (В. Коцишевский)
21. Замужней дамочке в глаза мы дым пускали, пускал Аркашка, пускал и я… (В. Коцишевский)
22. Месяц мордой полощется в луже, в небе светит лиловый сапфир… (В. Коцишевский)
23. Ты не жми меня к берёзе, это вовсе ни к чему...
24. Прощай, прощай, любовь моя, прощай, не в силах больше я скрывать печаль...
+ По аллеям тенистого парка с пионером гуляла вдова...
+ Засунул я отмычку в ту узенькую дверь...
+ Из ресторана вышла блядь, глаза её посоловели...
+ Сказал лягавый... (В. Коцишевский)
25. Поезд в белой дымке от тумана над рекой промчался как стрела...
26. Под окном черемуха расцветает белая... (В. Коцишевский)
27. Евреи, евреи, кругом одни евреи...
28. Давным-давно на Севере далёком, хотя и сам не зная почему... (В. Коцишевский)

Источник оцифровки: Андрей Шалягин
Устройство воспроизведения: Олимп-004
АЦП: Juli@
Программа-оцифровщик: CoolEditPro 2.0
Обработка: отсутствует

http://yadi.sk/d/bIpgUtsb5ATPl
http://yadi.sk/d/AKCKsIor5ATWb
http://yadi.sk/d/PzxFhDTj5ATZf
http://yadi.sk/d/jchfpUIg5ATca
http://yadi.sk/d/ysUBvZJe5ATfo
http://yadi.sk/d/JmLhhro35AThm

0

2

Давайте А.И приват. всё Андрюхе огромное Спасибо

0

3

Фикус
Гость
  Давно не смотрел эту тему Вот спросить у Вас хочу
Что самое инт. в ней ?????? Ну так просто как время будет вы напишите.....

0

4

Все благодарности - Tolik38 
Спасибо Толя извини не хотел так поступать .
Но люди не должны унижаться и просить у димуле  муз. послушать .
По причине строительства котеджа на Рублёвке
(решил там старость скоротать нет возможности перезалит Извини)
Если инт. моё мнение по кач. записи Это не в коей мере не в упрёк.
я не в восторге ... но это только моё мнение и не факт что оно правильное
Спасибо.........................

Аркадий Северный у В.Коцишевского под гитару – «Для Жоры Миргородского» (май 1978) lossless

Исполнитель:А. Северный
Альбом: Для Жоры Миргородского
Год записи: 1978
Формат: FLAC
Тип рипа: image+.cue
Битрейт аудио: lossless
Размер: часть 1 - 310 mb ; часть 2 - 294 mb
Время: часть 1 - 45:55 ; часть 2 - 43:28

часть 1

01.Вступление.
02.Дуня чумовая.
03.Интро + Оленька.
04.Интро + Дом Румянцева.
05.Интро + Акулька.
06.Интро + Сны.
07.Интро + Частушки
08.Интро + Не ходи ты так поздно из дома.
09.Океан шумит, играет ( В.Коцишевский ).
10.Интро + Алёшка.
11.Интро + Настроил гитару.
12.Интро + Баллада
13.Интро + Каторжанин.
14.Пацаночка ( В.Коцишевский ).
15.Где слова отыскать ( В.Коцишевский ).

часть 2

01.Интро + Частушки
02.Она была первой.
03.Ты мне не снилась.
04.Интро + 2 анекдота
05.Интро + Это было поздней осенью.
06.Мы теперь уходим понемногу ( В.Коцишевский ).
07.Я и Аркаша ( В.Коцишевский ).
08.Месяц мордой полощется в луже ( В.Коцишевский ).
09.Интро + Частушки
10.Интро + Прощай любовь моя + попурри
11.Поезд в белой дымке.
12.Под окном черёмуха ( В.Коцишевский ).
13.Евреи, евреи, кругом одни евреи.

EAC, FLAC, CUE, LOG
добавлено 3% на восстановление

часть 1

Скрытый текст:

Для просмотра скрытого текста - войдите или зарегистрируйтесь.


часть 2

Скрытый текст:

Для просмотра скрытого текста - войдите или зарегистрируйтесь.


Ребята ссылки чужие я их закрыл .... а тог говорят что я на каленях тут песню спрашиваю
Как то и огорчили меня такие высказывания . Больше и спрашивать не стану....

0

5

1 часть

Exact Audio Copy V0.99 prebeta 1 from 25. May 2007

Отчёт EAC об извлечении, выполненном 15. октября 2009, 22:13

А.Северный / Для Жоры Миргородского

Дисковод: Optiarc DVD RW AD-7173A   Adapter: 3  ID: 1

Режим чтения                 : Достоверность
Использование точного потока : Да
Отключение кэша аудио        : Нет
Использование указателей C2  : Да

Комбинированное смещение чтения/записи        : 0
Способность читать области Lead-in и Lead-out : Нет
Заполнение пропущенных сэмплов тишиной        : Да
Удаление блоков с тишиной в начале и конце    : Нет
Интерфейс                                     : Установленный внешний ASPI-интерфейс

Выходной формат : Внутренние WAV-операции
Формат сэмплов  : 44.100 Гц; 16 бит; стерео

TOC извлечённого CD

     Трек |   Старт  | Длительность | Начальный сектор | Конечный сектор
    ---------------------------------------------------------------------
       1  |  0:00.00 |    0:27.43   |           0      |       2067     
       2  |  0:27.43 |    2:17.55   |        2068      |      12397     
       3  |  2:45.23 |    3:44.43   |       12398      |      29240     
       4  |  6:29.66 |    3:06.09   |       29241      |      43199     
       5  |  9:36.00 |    3:28.31   |       43200      |      58830     
       6  | 13:04.31 |    1:59.05   |       58831      |      67760     
       7  | 15:03.36 |    4:30.48   |       67761      |      88058     
       8  | 19:34.09 |    4:13.69   |       88059      |     107102     
       9  | 23:48.03 |    1:26.42   |      107103      |     113594     
      10  | 25:14.45 |    3:18.15   |      113595      |     128459     
      11  | 28:32.60 |    3:50.04   |      128460      |     145713     
      12  | 32:22.64 |    3:49.37   |      145714      |     162925     
      13  | 36:12.26 |    5:23.71   |      162926      |     187221     
      14  | 41:36.22 |    2:32.44   |      187222      |     198665     
      15  | 44:08.66 |    1:46.45   |      198666      |     206660     

Характеристики диапазона извлечения и сообщения об ошибках

Выбранный диапазон

     Имя файла C:\Documents and Settings\Admin\Рабочий стол\А.Северный\Для Жоры\часть 1\А.Северный - Для Жоры Миргородского.wav

     Пиковый уровень 100.0 %
     Качество диапазона 100.0 %
     CRC копии D9B8C4A4
     Копирование... OK

Ошибок не произошло

Конец отчёта
.....................................................


2 часть

Exact Audio Copy V0.99 prebeta 1 from 25. May 2007

Отчёт EAC об извлечении, выполненном 15. октября 2009, 23:07

А.Северный / Для Жоры Миргородского

Дисковод: Optiarc DVD RW AD-7173A   Adapter: 3  ID: 1

Режим чтения                 : Достоверность
Использование точного потока : Да
Отключение кэша аудио        : Нет
Использование указателей C2  : Да

Комбинированное смещение чтения/записи        : 0
Способность читать области Lead-in и Lead-out : Нет
Заполнение пропущенных сэмплов тишиной        : Да
Удаление блоков с тишиной в начале и конце    : Нет
Интерфейс                                     : Установленный внешний ASPI-интерфейс

Выходной формат : Внутренние WAV-операции
Формат сэмплов  : 44.100 Гц; 16 бит; стерео

TOC извлечённого CD

     Трек |   Старт  | Длительность | Начальный сектор | Конечный сектор
    ---------------------------------------------------------------------
       1  |  0:00.00 |    4:23.44   |           0      |      19768     
       2  |  4:23.44 |    3:54.10   |       19769      |      37328     
       3  |  8:17.54 |    2:05.21   |       37329      |      46724     
       4  | 10:23.00 |    3:08.61   |       46725      |      60885     
       5  | 13:31.61 |    2:44.57   |       60886      |      73242     
       6  | 16:16.43 |    4:29.27   |       73243      |      93444     
       7  | 20:45.70 |    1:41.59   |       93445      |     101078     
       8  | 22:27.54 |    2:00.69   |      101079      |     110147     
       9  | 24:28.48 |    3:00.27   |      110148      |     123674     
      10  | 27:29.00 |    4:16.74   |      123675      |     142948     
      11  | 31:45.74 |    2:15.72   |      142949      |     153145     
      12  | 34:01.71 |    2:23.51   |      153146      |     163921     
      13  | 36:25.47 |    7:02.49   |      163922      |     195620     

Характеристики диапазона извлечения и сообщения об ошибках

Выбранный диапазон

     Имя файла C:\Documents and Settings\Admin\Рабочий стол\А.Северный\Для Жоры\часть 2\А.Северный - Для Жоры Миргородского.wav

     Пиковый уровень 98.4 %
     Качество диапазона 100.0 %
     CRC копии E95FA3AC
     Копирование... OK

Ошибок не произошло

Конец отчёта

0

6

Вот одним архивом .... может кому так удобно будет ....

https://yadi.sk/d/fg3N9Ko7qF67i

Лёня наверно весь в трудах и заботах..... или огорчился ....
Будет желание зайдёт....

0

7

Интерент щас вздрогнет ....
куй пишет сруль саломонович
.

01 Аркадий Северный - Вступление + Дуня чумовая
02 Аркадий Северный - Интро + Оленька
03 Аркадий Северный - Интро + Дом Румянцева
04 Аркадий Северный - Интро + Акулька
05 Аркадий Северный - Интро + Сны
06 Аркадий Северный - Интро + Частушки
07 Аркадий Северный - Интро + Не ходи ты так поздно из дома
08 Владислав Коцишевский - Океан шумит, играет
09 Аркадий Северный - Интро + Алёшка
10 Аркадий Северный - Интро + Настроил гитару
11 Аркадий Северный - Интро + Куплеты Евы
12 Аркадий Северный - Интро + Каторжанин
13 Владислав Коцишевский - Пацаночка
14 Владислав Коцишевский - Где слова отыскать
15 Аркадий Северный - Интро + Частушки-пропиздушки
16 Аркадий Северный - Она была первой
17 Аркадий Северный - Ты мне не снилась
18 Аркадий Северный - Анекдоты
19 Аркадий Северный - Евреи, евреи, кругом одни евреи
20 Аркадий Северный - Это дело было поздней осенью
21 Владислав Коцишевский - Романс
22 Владислав Коцишевский - Замужней дамочки в глаза мне пыль пускали
23 Владислав Коцишевский - Месяц мордой полощется в луже
24 Аркадий Северный - Частушки 'О-па, о-па зелёная ограда'
25 Аркадий Северный - Прощай, прощай, любовь моя прощай! + Попурри
26 Аркадий Северный - Поезд в белой дымке от тумана

http://savepic.ru/11920732.png

https://yadi.sk/mail/?hash=EMGy/gorOPl+bIReBLNA8p38gGh950I6EJqz2b71adA=&uid=423865181

https://yadi.sk/mail/?hash=DNmQm3GM2UaKbeAQjmkbDTprr2ppocdBUHSItrBdhPg=&uid=423865181

REM GENRE "Блат"
REM DATE 1978
REM COMMENT "Оцифровка - Борис 63"
TITLE "Дуня Чумовая (Концерт для Жоры Миргородского)"
PERFORMER "Северный Аркадий и Влад Коцишевский"
FILE "1 ст.flac" WAVE
  TRACK 01 AUDIO
TITLE "Вступление + Дуня чумовая"
PERFORMER "Аркадий Северный"
    INDEX 01 00:04:42
  TRACK 02 AUDIO
TITLE "Интро + Оленька"
PERFORMER "Аркадий Северный"
    INDEX 01 02:36:35
  TRACK 03 AUDIO
TITLE "Интро + Дом Румянцева"
PERFORMER "Аркадий Северный"
    INDEX 01 06:06:43
  TRACK 04 AUDIO
TITLE "Интро + Акулька"
PERFORMER "Аркадий Северный"
    INDEX 01 09:02:47
  TRACK 05 AUDIO
TITLE "Интро + Сны"
PERFORMER "Аркадий Северный"
    INDEX 01 12:19:20
  TRACK 06 AUDIO
TITLE "Интро + Частушки"
PERFORMER "Аркадий Северный"
    INDEX 01 14:12:58
  TRACK 07 AUDIO
TITLE "Интро + Не ходи ты так поздно из дома"
PERFORMER "Аркадий Северный"
    INDEX 01 18:31:50
  TRACK 08 AUDIO
TITLE "Океан шумит, играет"
PERFORMER "Владислав Коцишевский"
    INDEX 01 22:35:22
  TRACK 09 AUDIO
TITLE "Интро + Алёшка"
PERFORMER "Аркадий Северный"
    INDEX 01 23:58:59
  TRACK 10 AUDIO
TITLE "Интро + Настроил гитару"
PERFORMER "Аркадий Северный"
    INDEX 01 27:09:31
  TRACK 11 AUDIO
TITLE "Интро + Куплеты Евы"
PERFORMER "Аркадий Северный"
    INDEX 01 30:49:67
  TRACK 12 AUDIO
TITLE "Интро + Каторжанин"
PERFORMER "Аркадий Северный"
    INDEX 01 34:30:16
  TRACK 13 AUDIO
TITLE "Пацаночка"
PERFORMER "Владислав Коцишевский"
    INDEX 01 39:42:07
FILE "2 ст.flac" WAVE
  TRACK 14 AUDIO
TITLE "Где слова отыскать"
PERFORMER "Владислав Коцишевский"
    INDEX 01 00:04:36
  TRACK 15 AUDIO
TITLE "Интро + Частушки-пропиздушки"
PERFORMER "Аркадий Северный"
    INDEX 01 02:22:23
  TRACK 16 AUDIO
TITLE "Она была первой"
PERFORMER "Аркадий Северный"
    INDEX 01 06:33:00
  TRACK 17 AUDIO
TITLE "Ты мне не снилась"
PERFORMER "Аркадий Северный"
    INDEX 01 10:16:58
  TRACK 18 AUDIO
TITLE "Анекдоты"
PERFORMER "Аркадий Северный"
    INDEX 01 12:16:73
  TRACK 19 AUDIO
TITLE "Евреи, евреи, кругом одни евреи"
PERFORMER "Аркадий Северный"
    INDEX 01 15:18:63
  TRACK 20 AUDIO
TITLE "Это дело было поздней осенью"
PERFORMER "Аркадий Северный"
    INDEX 01 22:07:23
  TRACK 21 AUDIO
TITLE "Романс"
PERFORMER "Владислав Коцишевский"
    INDEX 01 24:45:00
  TRACK 22 AUDIO
TITLE "Замужней дамочки в глаза мне пыль пускали"
PERFORMER "Владислав Коцишевский"
    INDEX 01 29:05:12
  TRACK 23 AUDIO
TITLE "Месяц мордой полощется в луже"
PERFORMER "Владислав Коцишевский"
    INDEX 01 30:42:03
  TRACK 24 AUDIO
TITLE "Частушки 'О-па, о-па зелёная ограда'"
PERFORMER "Аркадий Северный"
    INDEX 01 32:37:61
  TRACK 25 AUDIO
TITLE "Прощай, прощай, любовь моя прощай! + Попурри"
PERFORMER "Аркадий Северный"
    INDEX 01 35:29:68
  TRACK 26 AUDIO
TITLE "Поезд в белой дымке от тумана"
PERFORMER "Аркадий Северный"
    INDEX 01 39:35:36
  TRACK 27 AUDIO
TITLE "-"
PERFORMER "-"
    INDEX 01 41:44:66

0

8

http://savepic.ru/11918686.png

А это с приватной катушке ???? Тогда щас ответят люди ....

0

9

Пока сруль саломонович куй пишет я пока мп3 послушаю

[audio]http://dl.waix.ru/c960dda2b.mp3[/audio]

0

10

Скоро всех нас удивят ....

вот - видео пока!
запись в работе.
мне сруль саломонович написал что лучше записи не найти даже за деньги
он искал и предлогал 1000 руб за катушку .

я нахожусь ну просто в затруднительном положении принемать в подарок этот маг. или нет
ну огоньки там не красиво горят ....

0


Вы здесь » Tutnet-fufla » Аркадий Северный Записи и концерты » Аркадий Северный. - Для Жоры Миргородского (1978) Lossless