Tutnet-fufla

Объявление

Введите здесь ваше объявление.

Информация о пользователе

Привет, Гость! Войдите или зарегистрируйтесь.


Вы здесь » Tutnet-fufla » Аркадий Северный Записи и концерты » Аркадий Северный и Братья Жемчужные "Поговори со мною мама" С (ВТ)


Аркадий Северный и Братья Жемчужные "Поговори со мною мама" С (ВТ)

Сообщений 1 страница 22 из 22

1

(24/96) Аркадий Северный и Братья Жемчужные - Поговори со мною, мама! - 1976 (lossless)


оцифровка с катушки БОРИСА 63


Лента очень заезженная
Пришлось делать оцифровку с Акая - Электроника останавливалась постоянно из-за отсутствия феромагнитного слоя на некоторых местах ленты
У неё автостоп работает на просвет!
И тем не менее запись имеет право на существование.
Со второй стороной тут вообще засада - Начинает петь Могилевский , потом все идет Ровно!



Треклист:
01 А. Северный - Давно ли песни ты мне пела…
02 А. Северный - Хорошо в степи скакать…
03 А. Кавлелашвили - Мишка (Ты весь день сегодня ходишь…)
04 Н. Резанов - Я был батальонный разведчик…
05 А. Северный - Нравится мне твоя поза унылая…
06 А. Северный - На корабле матросы ходят злые…
07 А. Северный - В нашу гавань заходили корабли…
08 А. Северный - Мне сегодня так больно…
09 А. Северный - Когда меня водили в садик гулять…
10 Е. Федоров - Осень. Прозрачное утро…

11 Анатолий Могилевский - За бархатной шторой томится окно...(Музей Любви)

12 Е. Федоров - Осень. Прозрачное утро…
13 А. Северный - Когда фонарики качаются ночные…
14 А. Северный - Будет вам и небо голубое…
15 Н. Резанов - Мы скакали по степи…
16 А. Северный - Друзья, я вам спою нравоученье…
17 А. Северный - Когда с тобой мы встретились…
18 Е. Федоров - Вчера просил вас быть на свидании…
19 Н. Резанов и А. Северный - На окраине где-то в гавани…
20 Е. Федоров - Когда простым и теплым взором…
21 А. Северный - Серебрился серенький дымок…
22 А. Северный - В притоне много вина… (обрыв)

Размер: 962,5 МБ
https://yadi.sk/mail/?hash=1UnyFJEE6395b+iVKItJvSZnO3QGvckCPUT9gw61Rk8=&uid=193190115

Размер: 965,5 МБ

https://yadi.sk/mail/?hash=ePU7qlGaKVcJE7CJp8CFpi3HGyIGFlshNiwDow7W6bE=&uid=193190115

Я ПОВРЕМЕНЮ ВЫСКАЗЫВАТЬ СВОЁ МНЕНИЕ
Щас спившийся мудак с вт димуля СРУЛЬ всё расскажет . Он говорит что только на вт кач. записи.
но такого гов..а я ещё не встречал


Сруль саломонович ты что придурок с оплатой рекл. задерживаешь выплаты ???
Ждёшь пока счётчик включат ???

0

2

Я ПОВРЕМЕНЮ ВЫСКАЗЫВАТЬ СВОЁ МНЕНИЕ

Привет !
А.И. можно спросить у вас,вот вы видите ,что эта запись не годится, ни в пизду ,ни в красную армию ,так зачем вы её сюда выставляете ?

0

3

Здравствуйте . Хороший хозяин всё в дом тащит . Это одна из причин
Вторая пусть будет .... Третья может кому то инт. в чет. я чётко написал от куда запись
и Я бы задал Ваш вопрос им но меня там забанили . Я могу удалить не вопрос.

0

4

Я могу удалить не вопрос.


Да зачем же удалять,пусть будет,ну такого говна в сети полно и ещё лучше,что на них смотреть   ,здесь же собираются приличные люди,зачем им это скачивать ,не пойми что,с дырками на ленте побитые молью. :canthearyou:

0

5

ЗЫ
Многих песен нет ,некоторые обрываются,что там делает Могилевский то же не понятно.

0

6

Мне нечего сказать я хотел скачав один трек вырезать и не смог.
Пусть побудет потом удалю .

0

7

ну такого говна в сети полно и ещё лучше,что на них смотреть   ,здесь же собираются приличные люди,зачем им это скачивать ,не пойми что,с дырками на ленте побитые молью. :canthearyou:

                    ржу не могу...

вот вот  послушай  и с дырками...   А то на первых копиях отвык от крестьянских, побитых молью записей...

                           Давно я так не смеялся...

0

8

вот вот  послушай  и с дырками...


Я лучше съем бублик с дыркой ,чем слушать такое.А ты что это не ищешь Воркутинцев ,а ржёшь ? :D

0

9

:D

Так ты оказывается слова между песнями слышал(у Воркутинцев)  и про передачу  "Что,ГДЕ,КОГДА" тоже.

Как там в песне у Новикова : "  ...он чувак закалки старой,он читал про трёх сестёр..."

0

10

Так ты оказывается слова между песнями слышал(у Воркутинцев)


А ты шо сумлеваешься и не я один слышал, а то журналист -фантаст насочинял такое на пустом месте,диву даёшься ?
Я понимаю ,что есть клубы по интересам,вот и Ш + такой клуб,но в любом деле должна быть какая то подпитка,типа спонсорской помощи , ну что бы там купить кирку и долбить асфальт в Москве и искать ,искать этих самых Воркутинских армян...
На голом энтузиазме ничего не получится.

0

11

Журналиста обсуждаем вот тут парни ....
Там просто шок

Кляузник с Шансон +(а)

0

12

Мой товарищ активист,
До чего же журналист,
Всё журналом жопу вытирает...
(с)

0

13

и про передачу  "Что,ГДЕ,КОГДА" тоже.


ЭВРИКА !!! Так в 1975 г. вышла первая передача "Что,где ,когда" вот почему они о ней и говорили.

0

14

Mytishchi
Гость
Наверно Вы были правы .... Только у меня вопрос к этим господам
а зачем го..о выставлять заведомо зная об этом

http://savepic.su/6460641.jpg

0

15

Свершилось чудо ....

(24/96) Ансамбль 'Братья Жемчужные' и Аркадий Северный - Концерт 'Поговори со мною, мама' (1976) (lossless)

Оцифровка Борис 63 с катушки Аркадия
Спасибо ему

Треклист:

01 А. Кавлелашвили - Вдыхая розы аромат…
02 Н. Резанов - Ночка начинается, фонарики качаются…
03 А. Северный - Давно ли песни ты мне пела…
04 Е. Фёдоров - Когда меня водили в садик гулять…
05 А. Северный - Хорошо в степи скакать…
06 А. Кавлелашвили - Ты весь день сегодня ходишь дутый…
07 Н. Резанов - Я был батальонный разведчик…
08 А. Северный - Нравится мне твоя поза унылая…
09 А. Северный - На корабле матросы ходят злые…
10 А. Северный - В нашу гавань заходили корабли…
11 А. Северный - Мне сегодня так больно…
12
13 Е. Фёдоров - Осень. Прозрачное утро…
14 А. Северный - Когда фонарики качаются ночные…
15 А. Северный - Будет вам и небо голубое…
16 Н. Резанов - Мы скакали по степи…
17 А. Северный - Друзья, я вам спою нравоученье…
18 А. Северный - Когда с тобой мы встретились…
19 Е. Федоров - Вчера просил вас быть на свидании…
20 Н. Резанов и А. Северный - На окраине, где-то в гавани…
21 Е. Федоров - Когда простым и тёплым взором…
22 А. Северный - Серебрился серенький дымок…
23 А. Северный - В притоне много вина…
24 А. Кавлелашвили - Я был душой дурного общества…

Ccылка FLAC+CUE:

REM GENRE "Блат"
REM DATE 1976
REM COMMENT "Оцифровка - Борис 63"
TITLE "Концерт  'Поговори  со  мною,  мама'"
PERFORMER "Анс. 'Братья Жемчужные' с Аркадием Северным"
FILE "1 ст.flac" WAVE
  TRACK 01 AUDIO
TITLE "Вдыхая розы аромат…"
PERFORMER "А. Кавлелашвили"
    INDEX 01 00:03:31
  TRACK 02 AUDIO
TITLE "Ночка начинается, фонарики качаются…"
PERFORMER "Н. Резанов"
    INDEX 01 02:30:67
  TRACK 03 AUDIO
TITLE "Давно ли песни ты мне пела…"
PERFORMER "А. Северный"
    INDEX 01 05:19:46
  TRACK 04 AUDIO
TITLE "Когда меня водили в садик гулять…"
PERFORMER "Е. Фёдоров"
    INDEX 01 09:33:16
  TRACK 05 AUDIO
TITLE "Хорошо в степи скакать…"
PERFORMER "А. Северный"
    INDEX 01 11:42:57
  TRACK 06 AUDIO
TITLE "Ты весь день сегодня ходишь дутый…"
PERFORMER "А. Кавлелашвили"
    INDEX 01 16:07:57
  TRACK 07 AUDIO
TITLE "Я был батальонный разведчик…"
PERFORMER "Н. Резанов"
    INDEX 01 19:47:60
  TRACK 08 AUDIO
TITLE "Нравится мне твоя поза унылая…"
PERFORMER "А. Северный"
    INDEX 01 25:13:74
  TRACK 09 AUDIO
TITLE "На корабле матросы ходят злые…"
PERFORMER "А. Северный"
    INDEX 01 28:39:04
  TRACK 10 AUDIO
TITLE "В нашу гавань заходили корабли…"
PERFORMER "А. Северный"
    INDEX 01 33:19:69
  TRACK 11 AUDIO
TITLE "Мне сегодня так больно…"
PERFORMER "А. Северный"
    INDEX 01 37:30:73
  TRACK 12 AUDIO
TITLE "-"
PERFORMER "-"
    INDEX 01 41:42:05
FILE "2 ст.flac" WAVE
  TRACK 13 AUDIO
TITLE "Осень. Прозрачное утро…"
PERFORMER "Е. Фёдоров"
    INDEX 01 00:02:48
  TRACK 14 AUDIO
TITLE "Когда фонарики качаются ночные…"
PERFORMER " А. Северный"
    INDEX 01 04:37:42
  TRACK 15 AUDIO
TITLE "Будет вам и небо голубое…"
PERFORMER "А. Северный"
    INDEX 01 06:33:64
  TRACK 16 AUDIO
TITLE "Мы скакали по степи…"
PERFORMER "Н. Резанов"
    INDEX 01 12:46:56
  TRACK 17 AUDIO
TITLE "Друзья, я вам спою нравоученье…"
PERFORMER "А. Северный"
    INDEX 01 16:06:65
  TRACK 18 AUDIO
TITLE "Когда с тобой мы встретились…"
PERFORMER "А. Северный"
    INDEX 01 17:57:00
  TRACK 19 AUDIO
TITLE "Вчера просил вас быть на свидании… "
PERFORMER "Е. Федоров"
    INDEX 01 21:39:30
  TRACK 20 AUDIO
TITLE "На окраине, где-то в гавани…"
PERFORMER "Н. Резанов и А. Северный"
    INDEX 01 24:24:12
  TRACK 21 AUDIO
TITLE "Когда простым и тёплым взором…"
PERFORMER "Е. Федоров"
    INDEX 01 29:39:15
  TRACK 22 AUDIO
TITLE "Серебрился серенький дымок…"
PERFORMER "А. Северный"
    INDEX 01 33:08:47
  TRACK 23 AUDIO
TITLE "В притоне много вина…"
PERFORMER "А. Северный"
    INDEX 01 37:54:44
  TRACK 24 AUDIO
TITLE "Я был душой дурного общества…"
PERFORMER "А. Кавлелашвили"
    INDEX 01 41:42:18

Переоцифровано на AKAI GX-646 с питч контролем (поправкой скорости в аналоге):

https://yadi.sk/mail/?hash=E5tgkvhjII6hV8vFcESoVVhGD87bZgoMXnWr2o+Cjkg=&uid=423865181
https://yadi.sk/mail/?hash=p/tG32Qgs9Z9VKIKjnPk1rBaTU5+n01TadWjbYvs2k0=&uid=423865181

=================================================

Первоначальная оцифровка на Akai GX-77:

https://yadi.sk/mail/?hash=VGvcgWfZs/IsiIAefCxWqwyyWOrmHbjaYBxm+QTvw6g=&uid=423865181
https://yadi.sk/mail/?hash=liUr8MAVuMIPmBYf2Z8X7fVkDWuyrJO5Q9JpHod2PiA=&uid=423865181

.
.........................................................................
Еще одна оцифровка с этой же катушки
Подача сигнала - AKAI - GX - 646
Подкорректировал скорость на слух

https://yadi.sk/mail/?hash=E5tgkvhjII6hV8vFcESoVVhGD87bZgoMXnWr2o+Cjkg=&uid=423865181
https://yadi.sk/mail/?hash=p/tG32Qgs9Z9VKIKjnPk1rBaTU5+n01TadWjbYvs2k0=&uid=423865181

REM GENRE "Блат"
REM DATE 1976
REM COMMENT "Оцифровка - Борис 63"
TITLE "Концерт  'Поговори  со  мною,  мама'"
PERFORMER "Анс. 'Братья Жемчужные' с Аркадием Северным"
FILE "мама 1.flac" WAVE
  TRACK 01 AUDIO
TITLE "Вдыхая розы аромат…"
PERFORMER "А. Кавлелашвили"
    INDEX 01 00:04:15
  TRACK 02 AUDIO
TITLE "Ночка начинается, фонарики качаются…"
PERFORMER "Н. Резанов"
    INDEX 01 02:39:14
  TRACK 03 AUDIO
TITLE "Давно ли песни ты мне пела…"
PERFORMER "А. Северный"
    INDEX 01 05:37:35
  TRACK 04 AUDIO
TITLE "Когда меня водили в садик гулять…"
PERFORMER "Е. Фёдоров"
    INDEX 01 10:05:48
  TRACK 05 AUDIO
TITLE "Хорошо в степи скакать…"
PERFORMER "А. Северный"
    INDEX 01 12:22:61
  TRACK 06 AUDIO
TITLE "Ты весь день сегодня ходишь дутый…"
PERFORMER "А. Кавлелашвили"
    INDEX 01 17:03:01
  TRACK 07 AUDIO
TITLE "Я был батальонный разведчик…"
PERFORMER "Н. Резанов"
    INDEX 01 20:56:18
  TRACK 08 AUDIO
TITLE "Нравится мне твоя поза унылая…"
PERFORMER "А. Северный"
    INDEX 01 26:41:59
  TRACK 09 AUDIO
TITLE "На корабле матросы ходят злые…"
PERFORMER "А. Северный"
    INDEX 01 30:19:04
  TRACK 10 AUDIO
TITLE "В нашу гавань заходили корабли…"
PERFORMER "А. Северный"
    INDEX 01 35:17:01
  TRACK 11 AUDIO
TITLE "Мне сегодня так больно…"
PERFORMER "А. Северный"
    INDEX 01 39:42:66
FILE "мама 2.flac" WAVE
  TRACK 12 AUDIO
TITLE "Осень. Прозрачное утро…"
PERFORMER "Е. Фёдоров"
    INDEX 01 00:04:24
  TRACK 13 AUDIO
TITLE "Когда фонарики качаются ночные…"
PERFORMER " А. Северный"
    INDEX 01 04:53:65
  TRACK 14 AUDIO
TITLE "Будет вам и небо голубое…"
PERFORMER "А. Северный"
    INDEX 01 06:57:04
  TRACK 15 AUDIO
TITLE "Мы скакали по степи…"
PERFORMER "Н. Резанов"
    INDEX 01 13:31:56
  TRACK 16 AUDIO
TITLE "Друзья, я вам спою нравоученье…"
PERFORMER "А. Северный"
    INDEX 01 17:05:20
  TRACK 17 AUDIO
TITLE "Когда с тобой мы встретились…"
PERFORMER "А. Северный"
    INDEX 01 19:01:50
  TRACK 18 AUDIO
TITLE "Вчера просил вас быть на свидании… "
PERFORMER "Е. Федоров"
    INDEX 01 22:59:28
  TRACK 19 AUDIO
TITLE "На окраине, где-то в гавани…"
PERFORMER "Н. Резанов и А. Северный"
    INDEX 01 25:52:00
  TRACK 20 AUDIO
TITLE "Когда простым и тёплым взором…"
PERFORMER "Е. Федоров"
    INDEX 01 31:26:27
  TRACK 21 AUDIO
TITLE "Серебрился серенький дымок…"
PERFORMER "А. Северный"
    INDEX 01 35:08:11
  TRACK 22 AUDIO
TITLE "В притоне много вина…"
PERFORMER "А. Северный"
    INDEX 01 40:10:60
  TRACK 23 AUDIO
TITLE "Я был душой дурного общества…"
PERFORMER "А. Кавлелашвили"
    INDEX 01 44:14:53

0

16

Я что-то не догоняю, что за Аркадий там у них такой? И кто скажет откровенно, как звук?

0

17

Ну какой там может быть звук ,как сам думаешь,откуда ему взяться.....

0

18

Я что-то не догоняю, что за Аркадий там у них такой?

Или Северный или Народный))

0

19

#p26394,Консул написал(а):

И кто скажет откровенно, как звук?

Здравствуйте парни . Павел я прекрасно знаю .что задавать вопрос на вопрос некрасиво
но спрошу у Вас . хотя много раз повторял этот вопрос . Можно ли из гов...а конф. сделать при наличии хорошего маг. и ху..й знает какой копии записи и замете в архиве нет лога.  любимых скриптов сруля саломоновича
вот так выглядет архив

http://savepic.ru/11907970.png

Я могу допустить что сама оц была не плохая а этот админ муз. гр. влез своим рылом туда
вот я порезал на треки эту запись это одна песня судить о кач вам

http://www13.zippyshare.com/v/RKsc0L6n/file.html

Один польз. спросил как то у этого админа муз. группы во так
Дмитрий, дай на твою позырить,на которой ты лося гоняешь
и был забанен и оскорбления в его адрес полились рекой
Я много раз говорил нет хорошей записи .... надо слушать мп3 хорошее а не скачивать гигами ......................
и ещё один момент .. а на зачем мне смотреть на картинки магнитафона от этого что звук изменится ??????

0

20

ВОТ И ПУСТЬ ЭТИ ГОСПОДА ПОКЛ. КАЧ ЗАПИСЕЙ НА ХАЛЯВУ ОТВЕТЯТ ВОТ ЭТО ЧТО

http://www63.zippyshare.com/v/AGNPvUUR/file.html
http://savepic.ru/11914152.png
Вот этот трек из приватной записи у сруля саломоновича которую по его мнению люди не могли слушать
долгое время .............. а он быдла имеет право ... Вопрос кто он такой и что он в этот приват выставил для людей

http://www17.zippyshare.com/v/bokVJYkf/file.html

0

21

#p26394,Консул написал(а):

И кто скажет откровенно, как звук?

Во сказали .....

оцифровка Бориса  очень качественная и приятная для прослушивания. Не хочется выключать. Хотя есть небольшие косячки, но это мелочь. Большое спасибо тебе и тому кто предоставил исходник записи этого альбома.

0

22

Не хочется включать!

0


Вы здесь » Tutnet-fufla » Аркадий Северный Записи и концерты » Аркадий Северный и Братья Жемчужные "Поговори со мною мама" С (ВТ)