Это интересно Скрыть

Tutnet-fufla

Объявление

Информация о пользователе

Привет, Гость! Войдите или зарегистрируйтесь.


Вы здесь » Tutnet-fufla » Аркадий Северный Записи и концерты » (24/96) Аркадий Северный - Третий одесский конц (lossless) с вт


(24/96) Аркадий Северный - Третий одесский конц (lossless) с вт

Сообщений 1 страница 3 из 3

1

24/96) Аркадий Северный с анс. "4 брата и лопата" Третий одесский концерт (lossless)

Оцифровка с катушки  Борис 63 

Подача сигнала - AKAI -GX 4000 D

Треклист:

01 Аркадий Северный - Вступление
02 Аркадий Северный - Вернулся-таки я в Одессу, иду-таки подобно бэсу…
03 Аркадий Северный - Зашел в Одесский кабачок…
04 Аркадий Северный - Милости просим, без двадцати восемь, наш оркестр уходит всегда на перерыв…
05 Аркадий Северный - Шаланды полные кефали…
06 Аркадий Северный - У Бонны Мироны ребенок, почти что из самых пеленок…
07 Аркадий Северный - Как много девушек хороших…
08 Аркадий Северный - Недавно слушал я пластинку…
09 Аркадий Северный - Ах, скокарь скокал, скокал, а мусор кнокал, кнокал…
10 Аркадий Северный - На Бродвее шумном чистил Джон ботинки, и блестят у Джона лишь белки у глаз…

11 Аркадий Северный и Р. Фукс - Я родился на границе, но отец мой и мать любили повторять…
12 Аркадий Северный и В. Маслов - А я говорю: 'Весна' – говорю…
13 Аркадий Северный и Р. Фукс - Сидели мы с Кирюхою, ого!..
14 Аркадий Северный - У кичмане пришлося мне прожить не год, не полтора, не два…
15 Аркадий Северный - В Одессе раз в кино купил билеты, но…
16 Аркадий Северный - В нашей песне раньше пелось: 'Дед по Невскому гулял…'
17 Аркадий Северный - В том фильме про Русь пойдёт рассказ, его вам берусь уложить сейчас…
18 Аркадий Северный - Если женщина изменит, я грустить не долго буду…

 
ЧЕРЫРЕ БРАТА И ЛОПАТА.cue НЕТ

1 сторона

Размер: 976,9 МБ

https://yadi.sk/mail/?hash=IuzKddmbtsYShsXEiCGSAk9pxmBKF+hoHP14WKYtuVM=&uid=193190115

2 сторона

Размер: 975,6 МБ

https://yadi.sk/mail/?hash=RdJK8rymIXe7SytceBIvcY1WTbp5uHhaMI3Sqn/NQyE=&uid=193190115

0

2

REM GENRE "Блатняк"
REM DATE 1976
REM COMMENT "Оцифровка - Борис 63"
TITLE "Концерт с  анс. '4 брата и лопата'"
PERFORMER "Аркадий Северный"
FILE "1 сторона.flac" WAVE
  TRACK 01 AUDIO
TITLE "Вступление"
PERFORMER "Аркадий Северный"
    INDEX 01 00:02:71
  TRACK 02 AUDIO
TITLE "Вернулся-таки я в Одессу, иду-таки подобно бэсу…"
PERFORMER "Аркадий Северный"
    INDEX 01 00:22:47
  TRACK 03 AUDIO
TITLE "Зашел в Одесский кабачок…"
PERFORMER "Аркадий Северный"
    INDEX 01 07:38:62
  TRACK 04 AUDIO
TITLE "Милости просим, без двадцати восемь, наш оркестр уходит всегда на перерыв…"
PERFORMER "Аркадий Северный"
    INDEX 01 11:13:70
  TRACK 05 AUDIO
TITLE "Шаланды полные кефали…"
PERFORMER "Аркадий Северный"
    INDEX 01 15:32:04
  TRACK 06 AUDIO
TITLE "У Бонны Мироны ребенок, почти что из самых пеленок…"
PERFORMER "Аркадий Северный"
    INDEX 01 21:22:32
  TRACK 07 AUDIO
TITLE "Как много девушек хороших…"
PERFORMER "Аркадий Северный"
    INDEX 01 26:34:67
  TRACK 08 AUDIO
TITLE "Недавно слушал я пластинку…"
PERFORMER "Аркадий Северный"
    INDEX 01 32:53:73
  TRACK 09 AUDIO
TITLE "Ах, скокарь скокал, скокал, а мусор кнокал, кнокал…"
PERFORMER "Аркадий Северный"
    INDEX 01 38:09:10
  TRACK 10 AUDIO
TITLE "На Бродвее шумном чистил Джон ботинки, и блестят у Джона лишь белки у глаз…"
PERFORMER "Аркадий Северный"
    INDEX 01 41:20:61
FILE "2 сторона.flac" WAVE
  TRACK 11 AUDIO
TITLE "Я родился на границе, но отец мой и мать любили повторять…"
PERFORMER "Аркадий Северный и Р. Фукс"
    INDEX 01 00:02:67
  TRACK 12 AUDIO
TITLE "А я говорю: 'Весна' – говорю…"
PERFORMER "Аркадий Северный и В. Маслов"
    INDEX 01 04:09:44
  TRACK 13 AUDIO
TITLE "Сидели мы с Кирюхою, ого!.."
PERFORMER "Аркадий Северный и Р. Фукс"
    INDEX 01 08:09:24
  TRACK 14 AUDIO
TITLE "У кичмане пришлося мне прожить не год, не полтора, не два…"
PERFORMER "Аркадий Северный"
    INDEX 01 12:45:52
  TRACK 15 AUDIO
TITLE "В Одессе раз в кино купил билеты, но…"
PERFORMER "Аркадий Северный"
    INDEX 01 19:48:07
  TRACK 16 AUDIO
TITLE "В нашей песне раньше пелось: 'Дед по Невскому гулял…'"
PERFORMER "Аркадий Северный"
    INDEX 01 24:42:48
  TRACK 17 AUDIO
TITLE "В том фильме про Русь пойдёт рассказ, его вам берусь уложить сейчас…"
PERFORMER "Аркадий Северный"
    INDEX 01 30:27:07
  TRACK 18 AUDIO
TITLE "Если женщина изменит, я грустить не долго буду…"
PERFORMER "Аркадий Северный"
    INDEX 01 41:56:31

0

3

http://s7.uploads.ru/G1mk2.png

0


Вы здесь » Tutnet-fufla » Аркадий Северный Записи и концерты » (24/96) Аркадий Северный - Третий одесский конц (lossless) с вт