Tutnet-fufla

Объявление

Уважаемые Гости Чтоб общаться в Чате Зайдите и зарегистрируйтесь

Информация о пользователе

Привет, Гость! Войдите или зарегистрируйтесь.


Вы здесь » Tutnet-fufla » Шансон в форм. lossless » (24/96) Братья Вознесенские‡1985 год(lossless)&


(24/96) Братья Вознесенские‡1985 год(lossless)&

Сообщений 1 страница 3 из 3

1

(24/96) Братья Вознесенские -1985 год(lossless)

Оцифровка Борис 63 с катушки Владимира (Отец Владимир)
с вт Все благодарности им

1 сторона
.
https://yadi.sk/mail/?hash=HYYuMk56Ks2RpujL8Qlgvdx18KtddXfhcambM0DVEnQ=&uid=193190115

2 сторона

https://yadi.sk/mail/?hash=MPCw+YgkijpBk2B7WSp0EXF61K+kUHryJmDTQPz5DaM=&uid=193190115

cue от redcaesar

https://yadi.sk/d/wHoHbjdLpwJNU
https://yadi.sk/d/SVBb9k0PpwJRC


сторона

01. Братья Вознесенские - Глаз один минус 8, а другой плюс 12
02. Братья Вознесенские - На свете жила горделивая дама
03. Братья Вознесенские - Ты пишешь мне, что жизнь у вас иная
04. Братья Вознесенские - Ты, Россия, большая страна
05. Братья Вознесенские - Течет речка по песочечку
06. Братья Вознесенские - Туман-туманище над миром стелется
07. Братья Вознесенские - Я не принц и не нищий, не батрак и не вор
08. Братья Вознесенские - За окошечком вагона виден краешек перрона
09. Братья Вознесенские - Сей вопрос, между прочим, был поставлен ребром
10. Братья Вознесенские - Лес у нас большой и дружный
11. Братья Вознесенские - Расскажу вам, кому чего снится
12. Братья Вознесенские - Когда я уезжаю из Одессы
13. Братья Вознесенские - Было шумно в подъезде вчера
14. Братья Вознесенские - Вы хотите знакомства поближе
15. Сергей Щебетун - Живете, скажем, вы в Москве (обрыв)

2 сторона

16. Братья Вознесенские - Раз пошли на дело я и Рабинович
17. Братья Вознесенские - Как-то по проспекту с Манькой я гулял
18. Братья Вознесенские - Собрались на угощенье, было Левино рожденье
19. Братья Вознесенские - Инструментальное попурри
20. Братья Вознесенские - Я - одессит, я из Одессы, здрасьте
21. Братья Вознесенские - Ах, лимончики, вы мои лимончики
22. Братья Вознесенские - Приглашен был к тетушке я на день рождения
23. Братья Вознесенские - Есть у нас в районе Молдаванки
24. Братья Вознесенские - От бутылки станет всем светлей
25. Братья Вознесенские - Может мы обидели кого-то зря
26. Братья Вознесенские - Помнишь мезозойскую культуру
27. Братья Вознесенские - Со Сталинградом я прощаюсь и в Одессу направляюсь
28. Братья Вознесенские - Есть город, который я вижу во сне
29. Братья Вознесенские - Инструментальное попурри
30. Сергей Щебетун - Рахиль
31. Сергей Щебетун - Когда-то древний человек

0

2

(24/96) Братья Вознесенские (сборка на сторону) [lossless]
Оц . Борис 63  лучшего оц. инт.

Треклист:

01 БРАТЬЯ ВОЗНЕСЕНСКИЕ - Приглашен был к тетушке я на День Рождения!
02 БРАТЬЯ ВОЗНЕСЕНСКИЕ - Мясоедовская улица моя
03 БРАТЬЯ ВОЗНЕСЕНСКИЕ - Помнишь мезозойскую культуру
04 БРАТЬЯ ВОЗНЕСЕНСКИЕ - Со Сталинградом я прощаюсь и в Одессу направляюсь
05 БРАТЬЯ ВОЗНЕСЕНСКИЕ - Глаз один - минус восемь, а другой - плюс двенадцать
06 БРАТЬЯ ВОЗНЕСЕНСКИЕ - На свете жила горделивая дама...
07 БРАТЬЯ ВОЗНЕСЕНСКИЕ - Ты пишешь, что жизнь у Вас иная...
08 БРАТЬЯ ВОЗНЕСЕНСКИЕ - Ты Россия большая страна
09 БРАТЬЯ ВОЗНЕСЕНСКИЕ - Я не принц и не нищий
10 БРАТЬЯ ВОЗНЕСЕНСКИЕ - За окошечком вагона...
11 БРАТЬЯ ВОЗНЕСЕНСКИЕ - Сей вопрос между прочим, был поставлен ребром...
12 БРАТЬЯ ВОЗНЕСЕНСКИЕ - Лес у нас большой и дружный!
13 БРАТЬЯ ВОЗНЕСЕНСКИЕ - Расскажу Вам кому чего снится...
14 БРАТЬЯ ВОЗНЕСЕНСКИЕ - Было шумно в подъезде вчера...
15 БРАТЬЯ ВОЗНЕСЕНСКИЕ - Вы хотите знакомства поближе...

https://yadi.sk/mail/?hash=o8n/zvkbvKeXuu37k3J7/NxKM77d0aSXfB/VFPF/Zp0=

REM GENRE "Shanson"
REM COMMENT "Оцифровка - Борис 63"
TITLE "Магнитоальбом-Выборка"
PERFORMER "БРАТЬЯ ВОЗНЕСЕНСКИЕ"
FILE "БРАТЬЯ ВОЗНЕСЕНСКИЕ (сборка).flac" WAVE
  TRACK 01 AUDIO
TITLE "Приглашен был к тетушке я на День Рождения!"
PERFORMER "БРАТЬЯ ВОЗНЕСЕНСКИЕ"
    INDEX 01 00:01:34
  TRACK 02 AUDIO
TITLE "Мясоедовская улица моя"
PERFORMER "БРАТЬЯ ВОЗНЕСЕНСКИЕ"
    INDEX 01 02:57:61
  TRACK 03 AUDIO
TITLE "Помнишь мезозойскую культуру"
PERFORMER "БРАТЬЯ ВОЗНЕСЕНСКИЕ"
    INDEX 01 07:04:64
  TRACK 04 AUDIO
TITLE "Со Сталинградом я прощаюсь и в Одессу направляюсь"
PERFORMER "БРАТЬЯ ВОЗНЕСЕНСКИЕ"
    INDEX 01 13:02:68
  TRACK 05 AUDIO
TITLE "Глаз один - минус восемь, а другой - плюс двенадцать"
PERFORMER "БРАТЬЯ ВОЗНЕСЕНСКИЕ"
    INDEX 01 15:06:47
  TRACK 06 AUDIO
TITLE "На свете жила горделивая дама..."
PERFORMER "БРАТЬЯ ВОЗНЕСЕНСКИЕ"
    INDEX 01 17:24:31
  TRACK 07 AUDIO
TITLE "Ты пишешь, что жизнь у Вас иная..."
PERFORMER "БРАТЬЯ ВОЗНЕСЕНСКИЕ"
    INDEX 01 20:42:50
  TRACK 08 AUDIO
TITLE "Ты Россия большая страна"
PERFORMER "БРАТЬЯ ВОЗНЕСЕНСКИЕ"
    INDEX 01 23:55:69
  TRACK 09 AUDIO
TITLE "Я не принц и не нищий"
PERFORMER "БРАТЬЯ ВОЗНЕСЕНСКИЕ"
    INDEX 01 26:11:64
  TRACK 10 AUDIO
TITLE "За окошечком вагона..."
PERFORMER "БРАТЬЯ ВОЗНЕСЕНСКИЕ"
    INDEX 01 29:27:61
  TRACK 11 AUDIO
TITLE "Сей вопрос между прочим, был поставлен ребром..."
PERFORMER "БРАТЬЯ ВОЗНЕСЕНСКИЕ"
    INDEX 01 31:37:39
  TRACK 12 AUDIO
TITLE "Лес у нас большой и дружный!"
PERFORMER "БРАТЬЯ ВОЗНЕСЕНСКИЕ"
    INDEX 01 35:31:40
  TRACK 13 AUDIO
TITLE "Расскажу Вам кому чего снится..."
PERFORMER "БРАТЬЯ ВОЗНЕСЕНСКИЕ"
    INDEX 01 38:42:41
  TRACK 14 AUDIO
TITLE "Было шумно в подъезде вчера..."
PERFORMER "БРАТЬЯ ВОЗНЕСЕНСКИЕ"
    INDEX 01 41:00:67
  TRACK 15 AUDIO
TITLE "Вы хотите знакомства поближе..."
PERFORMER "БРАТЬЯ ВОЗНЕСЕНСКИЕ"
    INDEX 01 43:14:51
.........................................................................
Вот так общаются на вт

http://sf.uploads.ru/H9s6N.png

Input File     : 'C:\USERS\8523~1\DESKTOP\5D88~1\au_F5FF.wav'
Channels       : 2
Sample Rate    : 96000
Precision      : 24-bit
Duration       : 00:02:56.36 = 16930560 samples ~ 13227 CDDA sectors
File Size      : 102M
Bit Rate       : 4.61M
Sample Encoding: 24-bit Signed Integer PCM

http://sh.uploads.ru/SmeCU.png

0

3

Вот это мудак с вт - дмитрий ..........................

http://s7.uploads.ru/T84bd.jpg

0


Вы здесь » Tutnet-fufla » Шансон в форм. lossless » (24/96) Братья Вознесенские‡1985 год(lossless)&