Все благодарности Админу вт ушедшему по болезни из жизни Tomas 
вечная память

Любавин Сергей  - Страна катает (2005) Lossless

Исполнитель Сергей Любавин
Альбом Страна катает 2005
Жанр Шансон
Содержание
01.Страна катает
02.Застольная
03.Пиво
04.Конопля
05.Кабак (памяти Есенина)
06.Я пьян от любви
07.Ласточка
08.Дембель
09.Крепостная
10.Сон пьяного Ивана
11.Солдат
12.Апельсиновый вор

Добавлена опция для восстановления 3%
EAC, FLAC, CUE, LOG, Covers

http://yadi.sk/d/8vCfLytz0uJyQ

Exact Audio Copy V0.99 prebeta 5 from 4. May 2009

Отчёт EAC об извлечении, выполненном 7. августа 2009, 19:30

ЛЮБАВИН СЕРГЕЙ / Страна катает

Дисковод: TSSTcorpCDDVDW SH-S223F Adapter: 2 ID: 0

Режим чтения : Достоверность
Использование точного потока : Да
Отключение кэша аудио : Да
Использование указателей C2 : Нет

Коррекция смещения при чтении : 6
Способность читать области Lead-in и Lead-out : Нет
Заполнение пропущенных сэмплов тишиной : Да
Удаление блоков с тишиной в начале и конце : Нет
При вычислениях CRC использовались нулевые сэмплы : Да
Интерфейс : Встроенный Win32-интерфейс для Win NT/2000

Выходной формат : Внутренние WAV-операции
Формат сэмплов : 44.100 Гц; 16 бит; стерео

TOC извлечённого CD

Трек | Старт | Длительность | Начальный сектор | Конечный сектор
---------------------------------------------------------------------
1 | 0:00.00 | 3:19.21 | 0 | 14945
2 | 3:19.21 | 3:45.29 | 14946 | 31849
3 | 7:04.50 | 4:25.57 | 31850 | 51781
4 | 11:30.32 | 3:50.15 | 51782 | 69046
5 | 15:20.47 | 3:07.67 | 69047 | 83138
6 | 18:28.39 | 3:18.30 | 83139 | 98018
7 | 21:46.69 | 3:57.55 | 98019 | 115848
8 | 25:44.49 | 3:37.18 | 115849 | 132141
9 | 29:21.67 | 2:59.31 | 132142 | 145597
10 | 32:21.23 | 4:54.54 | 145598 | 167701
11 | 37:16.02 | 2:46.31 | 167702 | 180182
12 | 40:02.33 | 4:09.07 | 180183 | 198864

Характеристики диапазона извлечения и сообщения об ошибках

Выбранный диапазон

Имя файла C:\Documents and Settings\Vladimir\Рабочий стол\Сергей Любавин - Страна катает\ЛЮБАВИН СЕРГЕЙ - Страна катает.wav

Пиковый уровень 96.6 %
Качество диапазона 99.9 %
CRC копии CEA2A510
Копирование... OK

Ошибок не произошло

Конец отчёт