Tutnet-fufla

Объявление

Введите здесь ваше объявление.

Информация о пользователе

Привет, Гость! Войдите или зарегистрируйтесь.


Вы здесь » Tutnet-fufla » Шансон в форм. lossless » [24/96] Михаил Гулько‡Военные песни [Lossless]&


[24/96] Михаил Гулько‡Военные песни [Lossless]&

Сообщений 1 страница 3 из 3

1


[24/96] Михаил Гулько -Военные песни [Lossless]

Оцифровка с катушки из личной коллекции
Бориса 63 с вт Спасибо

CUE:

Код:
REM GENRE "Shanson"
REM DATE 1996
REM COMMENT "Оцифровка - Борис 63"
TITLE "Военные песни"
PERFORMER "Михаил Гулько"
FILE "Михаил Гулько - Военные песни.flac" WAVE
  TRACK 01 AUDIO
TITLE "Прощай, любимый город"
PERFORMER "Михаил Гулько"
    INDEX 01 00:01:57
  TRACK 02 AUDIO
TITLE "Моя любимая"
PERFORMER "Михаил Гулько"
    INDEX 01 03:27:23
  TRACK 03 AUDIO
TITLE "Враги сожгли сожгли родную хату"
PERFORMER "Михаил Гулько"
    INDEX 01 07:04:02
  TRACK 04 AUDIO
TITLE "Тёмная ночь"
PERFORMER "Михаил Гулько"
    INDEX 01 10:27:68
  TRACK 05 AUDIO
TITLE "Солдатский вальс"
PERFORMER "Михаил Гулько"
    INDEX 01 12:57:06
  TRACK 06 AUDIO
TITLE "Одессит Мишка"
PERFORMER "Михаил Гулько"
    INDEX 01 15:04:56
  TRACK 07 AUDIO
TITLE "Реквием + На братских могилах"
PERFORMER "Михаил Гулько"
    INDEX 01 18:51:14
  TRACK 08 AUDIO
TITLE "Песня военных корреспондентов"
PERFORMER "Михаил Гулько"
    INDEX 01 20:49:37
  TRACK 09 AUDIO
TITLE "Журавли"
PERFORMER "Михаил Гулько"
    INDEX 01 23:30:61
  TRACK 10 AUDIO
TITLE "Слепой скрипач"
PERFORMER "Михаил Гулько"
    INDEX 01 27:05:28
  TRACK 11 AUDIO
TITLE "Я так давно не видел маму"
PERFORMER "Михаил Гулько"
    INDEX 01 30:12:53
  TRACK 12 AUDIO
TITLE "Под звёздами Балканскими"
PERFORMER "Михаил Гулько"
    INDEX 01 32:22:61
  TRACK 13 AUDIO
TITLE "Одна победа "
PERFORMER "Михаил Гулько"
    INDEX 01 34:09:07
  TRACK 14 AUDIO
TITLE "Эта рота!"
PERFORMER "Михаил Гулько"
    INDEX 01 38:05:19
ссылка -

FLAC+CUE:

https://yadi.sk/d/EW91tZedF7k93

...............................


Оцифровка Cyppress Hill
Спасибо Вам

[24/96] Михаил Гулько - Песни военных лет (1985) компакт-кассета [lossless]

Год выпуска: 1987(5)
Лейбл: -
Страна-производитель:-
Аудио кодек: WAV
Тип рипа: track
Формат записи: 24/96
Формат раздачи: 24/96
Продолжительность: 46:58
Размер: 1,51 Гб
Устройство воспроизведения: Ростов-105С1
АЦП: Juli@+MC_Aiwa ADF850(в качестве усилителя и регулятора сигнала)
Программа-"шифровщик":SF10
Обработка: Без обработки

Плейлист:
01.Прощай, любимый город
02.Моя любимая
03.В землянке
04.Враги сожгли родную хату
05.Тёмная ночь
06.Солдатский вальс
07.Одессит Мишка
08.Реквием+На братских могилах
09.Песня военных корреспондентов
10.Журавли
11.Слепой скрипач
12.Я так давно не видел Маму
13.Под звёздами Балканскими
14.Одна Победа
15.Эта рота
Дописка/Гоша Задунайский/:
16.Зануда Манька
17.Раньше все в холстах ходили
18.Вот и верь после этого людям

Скачать:

https://yadi.sk/mail/?hash=ZmK2es7qUGCnzBskaixZTcczSX8Q3VqKck4SvoLnWzw=

Гулько Михаил.cue

REM GENRE "Shanson"
REM DATE 1985
REM COMMENT "Оцифровка - Cyppress Hill"
TITLE "Песни военных лет"
PERFORMER "Михаил Гулько"
FILE "М.Гулько-Военные песни.wav" WAVE
  TRACK 01 AUDIO
TITLE "Прощай, любимый город"
PERFORMER "Михаил Гулько"
    INDEX 01 00:07:59
  TRACK 02 AUDIO
TITLE "Моя любимая"
PERFORMER "Михаил Гулько"
    INDEX 01 03:30:69
  TRACK 03 AUDIO
TITLE "В землянке"
PERFORMER "Михаил Гулько"
    INDEX 01 05:15:72
  TRACK 04 AUDIO
TITLE "Враги сожгли родную хату"
PERFORMER "Михаил Гулько"
    INDEX 01 07:08:08
  TRACK 05 AUDIO
TITLE "Тёмная ночь"
PERFORMER "Михаил Гулько"
    INDEX 01 10:33:71
  TRACK 06 AUDIO
TITLE "Солдатский вальс"
PERFORMER "Михаил Гулько"
    INDEX 01 13:04:65
  TRACK 07 AUDIO
TITLE "Одессит Мишка"
PERFORMER "Михаил Гулько"
    INDEX 01 15:14:44
  TRACK 08 AUDIO
TITLE "Реквием+На братских могилах"
PERFORMER "Михаил Гулько"
    INDEX 01 19:04:66
  TRACK 09 AUDIO
TITLE "Песня военных корреспондентов"
PERFORMER "Михаил Гулько"
    INDEX 01 21:05:08
  TRACK 10 AUDIO
TITLE "Журавли"
PERFORMER "Михаил Гулько"
    INDEX 01 23:48:24
  TRACK 11 AUDIO
TITLE "Слепой скрипач"
PERFORMER "Михаил Гулько"
    INDEX 01 27:26:26
  TRACK 12 AUDIO
TITLE "Я так давно не видел Маму"
PERFORMER "Михаил Гулько"
    INDEX 01 30:36:51
  TRACK 13 AUDIO
TITLE "Под звёздами Балканскими"
PERFORMER "Михаил Гулько"
    INDEX 01 32:49:66
  TRACK 14 AUDIO
TITLE "Одна Победа"
PERFORMER "Михаил Гулько"
    INDEX 01 34:38:24
  TRACK 15 AUDIO
TITLE "Эта рота"
PERFORMER "Михаил Гулько"
    INDEX 01 38:39:33
  TRACK 16 AUDIO
TITLE "Зануда Манька"
PERFORMER "Гоша Задунайский"
    INDEX 01 40:56:16
  TRACK 17 AUDIO
TITLE "Раньше все в холстах ходили"
PERFORMER "Гоша Задунайский"
    INDEX 01 42:43:07
  TRACK 18 AUDIO
TITLE "Вот и верь после этого людям!"
PERFORMER "Гоша Задунайский"
    INDEX 01 44:43:11

=Spoiler написал(а):

Пы.Сы. Кратко о истории записи: в 1987 году родственники из США,
зная мою тягу к исполнителям-эмигрантам, "прислали" компакт-кассету с новыми альбомами
М.Шуфутинского и М.Гулько. Но, как говорится, лучше бы прислали мастер-ленту на катушке,
т.к. стерео-кассетника у меня не было.
Пришлось срочно вызвать /из ФРГ/ приятеля с магнитофоном "Маяк-233" .
И вот зарядили мы эту "троллейбусную" кассету(Sony EF90) в его аппарат,
а записывал я на "Юпитер-203" на 9 скорости. Прошло почти 30 лет...
Это я к тому рассказываю, чтобы перед скачиванием подумали:оно Вам надо? P.S.
А кассета сгинула в пасти приятельской овчарки,
почему-то она любила только импортные и только мои кассеты.
Всего съедено(со слов приятеля) 3 штуки= эта и 2 запечатанных,
итого я пострадал на 75 советских рублей по рыночным ценам. Выводы делайте сами...
Приятного прослушивания!
Cyppress Hill


__________________

Оц. Саша (beloborod) с вт
Спасибо Вам

http://savepic.ru/11855513.jpg

Михаил Гулько 1985 "Песни военных лет"

Воспроизведение :Олимп 004
Источник : Катушка
Карта : XONAR DGX
Качество :24/96
Формат :FLAC

01. Прощай, любимый город
02. Моя любимая
03. В землянке
04. Враги сожгли родную хату
05. Тёмная ночь
06. Солдатский вальс
07. Одессит Мишка
08. Реквием + На братских могилах
09. Песня военных корреспондентов
10. Журавли
11. Слепой скрипач
12. Я так давно не видел Маму
13. Под звёздами Балканскими
14. Одна Победа
15. Эта рота

https://yadi.sk/mail/?hash=eh2IUmMiZgblRbSvvfe076YdX2HuE/Q2/HI+swPLgi0=

А вот это слушает А.И

http://savepic.ru/11823785.jpg

https://yadi.sk/d/uV_wYlMuwz9g8

0

2

http://savepic.ru/11837103.png
http://savepic.ru/11838124.png

[audio]http://dl.waix.ru/36b5cfb2a.mp3[/audio]

http://savepic.ru/11854508.jpg

0

3

Это тоже не интересно ....

0


Вы здесь » Tutnet-fufla » Шансон в форм. lossless » [24/96] Михаил Гулько‡Военные песни [Lossless]&