Это интересно Скрыть

Tutnet-fufla

Объявление

Информация о пользователе

Привет, Гость! Войдите или зарегистрируйтесь.


Вы здесь » Tutnet-fufla » Шансон в форм. lossless » (24/96) Валя Сергеева и Маша Иванова ‡(lossless)&


(24/96) Валя Сергеева и Маша Иванова ‡(lossless)&

Сообщений 1 страница 4 из 4

1

(24/96) Валя Сергеева и Маша Иванова (lossless)
Оцифровка Борис 63  с катушки Игоря (Капитан_Воронин)с вт
Спасибо им

Треклист:

Сторона 1:

01 Валя Сергеева - На окраине где-то в городе... (Песенка про кирпичики)
02 Валя Сергеева - Всюду деньги, деньги, деньги...
03 Валя Сергеева - Не смотрите вы так сквозь прищуренный глаз... (Институтка)
04 Валя Сергеева - Это было в Москве... (Забудь обо мне, мы стали чужими)
05 Валя Сергеева - Тихий вечер, дождик льёт целый день сегодня...
06 Валя Сергеева - Эх, шарабан мой, американка...
07 Валя Сергеева - Зашла на склад игрушек...
08 Валя Сергеева - Мама, я жулика люблю
09 Валя Сергеева - Перебиты, поломаны крылья
10 Валя Сергеева - Как-то раз по Ланжерону я брела (Алёша, ша!)
11 Валя Сергеева - Караван Шапер Али

Сторона 2:

01 Валя Сергеева - Иду по Невскому проспекту...
02 Валя Сергеева - Мама, я лётчика люблю!
03 Мария Иванова - Ах, эта красная рябина среди осенней желтизны
04 Мария Иванова - Прости, что краду у тебя одиночество...
05 Мария Иванова - Я люблю глядеть в глаза твои ясные...
06 Мария Иванова - Тает желтый воск свечей...
07 Мария Иванова - Я была девушка юной...
08 Мария Иванова - Разлуки словно луки, заламывают руки...
09 Мария Иванова - Передо мной остатки древней старины...
10 Мария Иванова - Ты помнишь ту весну?
11 Мария Иванова - Ты пахнешь женщиной чужой...
12 Мария Иванова - Я знаю, что тебе ведь всё равно

Ccылка FLAC+CUE (24/96):

https://yadi.sk/mail/?hash=fmbU+5WEWYEY3zG4BCR+/wENRk7s+as4RsSNGMLFQz4=&uid=252251247

Ccылка FLAC (Track) (16/48):
https://yadi.sk/mail/?hash=62B0+uwjpdjq9d9agU9M0tigonCPShKCjQoQC3WfMLw=&uid=252251247

0

2

(24/96) Валентина Сергеева; Наталья Игнатьева и Маша Иванова - Золотой сборник- (lossless)

Оцифровка
Борис 63  с кассеты пользователя форума вт - САРА

Спасибо!!!

http://savepic.ru/12926066.png

01 Валентина Сергеева - Мишка
02 Валентина Сергеева - Перебиты, поломаны крылья
03 Валентина Сергеева - Мама я летчика люблю
04 Наталья Игнатьева - Если придется когда нибудь мне в океане тонуть
05 Наталья Игнатьева - Вдали погас последний луч заката
06 Наталья Игнатьева - Ох, виновата ли я
07 Валентина Сергеева - На окраине где то в городе
08 Валентина Сергеева - Всюду деньги
09 Валентина Сергеева - Мой отец в Октябре (Черная моль)
10 Валентина Сергеева - Это было в Москве
11 Валентина Сергеева - Шарабан
12 Валентина Сергеева - Зашла на склад игрушек
13 Валентина Сергеева - Вечерело (Все равно война)

14 Валентина Сергеева - Вечерело (Все равно война)
15 Валентина Сергеева - Лунного луча дорожка
16 Валентина Сергеева - Помнишь вечер
17 Валентина Сергеева - Чубчик
18 Валентина Сергеева - Течет речка
19 Валентина Сергеева - Ты ушел далеко в море
20 Валентина Сергеева - На последнюю пятерку
21 Валентина Сергеева - Ночь надвигается (Бублички)
22 Валентина Сергеева - С вором ходила
23 Маша Иванова - Я была девушкой юной
24 Маша Иванова - Разлуки словно луки (Пилигримы)
25 Наталья Игнатьева - Ты говоришь что я пьяна
26 Валентина Сергеева - Помнишь вечер

CUE:

Код:
REM GENRE "Shanson"
REM COMMENT "Оцифровка - Борис 63"
TITLE "Золотой сборник"
PERFORMER "Валентина Сергеева; Наталья Игнатьева и Маша Иванова"
FILE "Игнатьева 1.flac" WAVE
  TRACK 01 AUDIO
TITLE "Мишка"
PERFORMER "Валентина Сергеева"
    INDEX 01 00:00:00
  TRACK 02 AUDIO
TITLE "Перебиты, поломаны крылья"
PERFORMER "Валентина Сергеева"
    INDEX 01 02:40:39
  TRACK 03 AUDIO
TITLE "Мама я летчика люблю"
PERFORMER "Валентина Сергеева"
    INDEX 01 08:00:56
  TRACK 04 AUDIO
TITLE "Если придется когда нибудь мне в океане тонуть"
PERFORMER "Наталья Игнатьева"
    INDEX 01 10:30:11
  TRACK 05 AUDIO
TITLE "Вдали погас последний луч заката"
PERFORMER "Наталья Игнатьева"
    INDEX 01 13:25:07
  TRACK 06 AUDIO
TITLE "Ох, виновата ли я"
PERFORMER "Наталья Игнатьева"
    INDEX 01 16:35:11
  TRACK 07 AUDIO
TITLE "На окраине где то в городе"
PERFORMER "Валентина Сергеева"
    INDEX 01 19:33:61
  TRACK 08 AUDIO
TITLE "Всюду деньги"
PERFORMER "Валентина Сергеева"
    INDEX 01 22:26:65
  TRACK 09 AUDIO
TITLE "Мой отец в Октябре (Черная моль)"
PERFORMER "Валентина Сергеева"
    INDEX 01 25:38:19
  TRACK 10 AUDIO
TITLE "Это было в Москве"
PERFORMER "Валентина Сергеева"
    INDEX 01 32:31:55
  TRACK 11 AUDIO
TITLE "Шарабан"
PERFORMER "Валентина Сергеева"
    INDEX 01 37:01:08
  TRACK 12 AUDIO
TITLE "Зашла на склад игрушек"
PERFORMER "Валентина Сергеева"
    INDEX 01 41:22:22
  TRACK 13 AUDIO
TITLE "Вечерело (Все равно война)"
PERFORMER "Валентина Сергеева"
    INDEX 01 45:42:62
FILE "Игнатьева 2.flac" WAVE
  TRACK 14 AUDIO
TITLE "Вечерело (Все равно война)"
PERFORMER "Валентина Сергеева"
    INDEX 01 00:00:00
  TRACK 15 AUDIO
TITLE "Лунного луча дорожка"
PERFORMER "Валентина Сергеева"
    INDEX 01 03:18:25
  TRACK 16 AUDIO
TITLE "Помнишь вечер"
PERFORMER "Валентина Сергеева"
    INDEX 01 06:59:40
  TRACK 17 AUDIO
TITLE "Чубчик"
PERFORMER "Валентина Сергеева"
    INDEX 01 10:41:02
  TRACK 18 AUDIO
TITLE "Течет речка"
PERFORMER "Валентина Сергеева"
    INDEX 01 13:04:26
  TRACK 19 AUDIO
TITLE "Ты ушел далеко в море"
PERFORMER "Валентина Сергеева"
    INDEX 01 18:04:42
  TRACK 20 AUDIO
TITLE "На последнюю пятерку"
PERFORMER "Валентина Сергеева"
    INDEX 01 21:13:05
  TRACK 21 AUDIO
TITLE "Ночь надвигается (Бублички)"
PERFORMER "Валентина Сергеева"
    INDEX 01 25:02:62
  TRACK 22 AUDIO
TITLE "С вором ходила"
PERFORMER "Валентина Сергеева"
    INDEX 01 28:46:18
  TRACK 23 AUDIO
TITLE "Я была девушкой юной"
PERFORMER "Маша Иванова"
    INDEX 01 31:31:69
  TRACK 24 AUDIO
TITLE "Разлуки словно луки (Пилигримы)"
PERFORMER "Маша Иванова"
    INDEX 01 34:28:73
  TRACK 25 AUDIO
TITLE "Ты говоришь что я пьяна"
PERFORMER "Наталья Игнатьева"
    INDEX 01 36:16:14
  TRACK 26 AUDIO
TITLE "Помнишь вечер"
PERFORMER "Валентина Сергеева"
    INDEX 01 41:03:48

https://yadi.sk/mail/?hash=egsSYpTRRCHUIH6jpdSubVkKP6AanR/rVFLy0AsjJs8=&uid=252251247

Скачать mp3--320 kbps:

https://yadi.sk/mail/?hash=ahfi+Nk/ojeIEvKw0O6IKMCZy/IyTwJnW+wUSOr+wSg=&uid=252251247

0

3

Все ссылки спившийся негодяй с вт дмитрий удалил .к данным оц он не малеёшего отношения не имел.
он нагло удалил ссылки человека который тратил время сидел и цыфровал...
Щас этот придурок вместе с мод глотом решают по каким принц. они будут обновлять По запросу польз или за деньги ..

0

4

Эта новая ссылка т.к старую митя скоро удалит обострение у него шизофрения не излечима

https://yadi.sk/d/XV_TJ60o3Einnb

0


Вы здесь » Tutnet-fufla » Шансон в форм. lossless » (24/96) Валя Сергеева и Маша Иванова ‡(lossless)&