Оц - Корф с вт

[24/96] Александр Жданов - Патроны - 1991 год [Lossless]
.
исполнитель : Жданов Саша
альбом: Патроны
год: 1991
формат: flac ( 96/24 )
оцифровка: с кассеты
магнитофон: Sony TS-WE 405
запись : звуковая карта Creative Saund Blaster THX trustudio PRO
программа : Sound Forge Pro 10.0.368
объем: 1065 мб
продолжительность: 43 мин 59 сек

http://savepic.ru/13449995.png

Трэклист :

01 - Выдавайте зарплату патронами...
02 - Дураки
03 - Товарищ президент
04 - Февраль
05 - Поединок
06 - Надоела суета
07 - Эх, судьба
08 - Сашка
09 - Хочу в Париж
10 - Цветы осени
11 - Надежда
12 - Каждому свое
13 - Поглядите

http://savepic.ru/13461257.jpg

Жданов - 1 : http://yadi.sk/d/NX9fkN3cFu1z
Жданов - 2 : http://yadi.sk/d/w0tBrQ7QFu9B

......................................

http://savepic.ru/13481737.png

Оцифровка с катушки.
лента скрипучая , но она прекрасно прошла, далее её в мусор.
магнитафон уходит в подарок Админу форума - Tutnet-fufla за борьбу  с терористами .

=Spoiler написал(а):

http://savepic.ru/13487880.jpg


01. Вступление
02. Выдавайте зарплату патронами...
03. Дураки
04. Товарищ президент
05. Февраль
06. Поединок
07. Надоела суета
08. Эх, судьба
09. Сашка
10. Хочу в Париж
11. Цветы осени
12. Надежда
13. Каждому свое
14. Поглядите
15. ???? - Мы за столько лет...

https://yadi.sk/mail/?hash=zhM9r2knmwenpVvtO8eCz92iXXB+7kdqId4D/TSJ4Z0=&uid=423865181&force_show=1

REM GENRE "ШАНСОН"
REM DATE 1991
REM COMMENT "Оцифровка - Борис 63"
TITLE "Патроны"
PERFORMER "Александр Жданов"
FILE "Жданов.flac" WAVE
  TRACK 01 AUDIO
TITLE "Вступление"
PERFORMER "Александр Жданов"
    INDEX 01 00:02:38
  TRACK 02 AUDIO
TITLE "Выдавайте зарплату патронами..."
PERFORMER "Александр Жданов"
    INDEX 01 00:23:16
  TRACK 03 AUDIO
TITLE "Дураки"
PERFORMER "Александр Жданов"
    INDEX 01 03:48:12
  TRACK 04 AUDIO
TITLE "Товарищ президент"
PERFORMER "Александр Жданов"
    INDEX 01 07:01:44
  TRACK 05 AUDIO
TITLE "Февраль"
PERFORMER "Александр Жданов"
    INDEX 01 10:18:24
  TRACK 06 AUDIO
TITLE "Поединок"
PERFORMER "Александр Жданов"
    INDEX 01 14:31:29
  TRACK 07 AUDIO
TITLE "Надоела суета"
PERFORMER "Александр Жданов"
    INDEX 01 17:14:28
  TRACK 08 AUDIO
TITLE "Эх, судьба"
PERFORMER "Александр Жданов"
    INDEX 01 20:55:63
  TRACK 09 AUDIO
TITLE "Сашка"
PERFORMER "Александр Жданов"
    INDEX 01 24:11:51
  TRACK 10 AUDIO
TITLE "Хочу в Париж"
PERFORMER "Александр Жданов"
    INDEX 01 26:30:20
  TRACK 11 AUDIO
TITLE "Цветы осени"
PERFORMER "Александр Жданов"
    INDEX 01 28:30:56
  TRACK 12 AUDIO
TITLE "Надежда"
PERFORMER "Александр Жданов"
    INDEX 01 32:24:40
  TRACK 13 AUDIO
TITLE "Каждому свое"
PERFORMER "Александр Жданов"
    INDEX 01 36:12:62
  TRACK 14 AUDIO
TITLE "Поглядите"
PERFORMER "Александр Жданов"
    INDEX 01 40:17:12
  TRACK 15 AUDIO
TITLE "Мы за столько лет..."
PERFORMER "?????"
    INDEX 01 43:51:49
  TRACK 16 AUDIO
TITLE ""
PERFORMER ""
    INDEX 01 47:47:03