Это интересно Скрыть

Tutnet-fufla

Объявление

Информация о пользователе

Привет, Гость! Войдите или зарегистрируйтесь.


Вы здесь » Tutnet-fufla » Русская муз. Поп.дэнс.Ретро.фольк. » Рок Острова - Наши (1995) Lossless


Рок Острова - Наши (1995) Lossless

Сообщений 1 страница 4 из 4

1

http://up-image.com/glit/holdz/z59f8a79e42be5.gif


Рок Острова - Наши (1995) Lossless

Рок Острова - Наши (1995)

Советская и российская поп-рок-группа , образована в 1986 году. В 1991 выходит альбом «Наши» на кассетах, состоящий из лучших народных песен в обработке группы(«Ой, мороз-мороз», «Ворон», «Стежки», «Вишня» и др.). Альбом к удивлению музыкантов стал необычайно популярен.

Страна: Россия
Страна-производитель диска: Россия
Год издания диска: 1995
Наличие сканов в архиве: да
Качество: lossless
Формат: APE
Параметры аудио: (image+.cue+.log)
Наличие сканов в архиве: да

Треклист:

01. Ой Мороз Мороз
02. Гармонь
03. Называют меня некрасивою
04. Вишня
05. Ой, то не вечер
06. Стёжки
07. Ченный ворон
08. Белым снегом
09. Ой, цветет калина
10. Рябинушка
11. На Муромской дорожке
12. Живет моя отрада

https://yadi.sk/d/g-49-5F_4byA1

0

2

Exact Audio Copy V0.99 prebeta 4 from 23. January 2008

Отчёт EAC об извлечении, выполненном 25. декабря 2008, 21:46

Рок Острова / Наши

Дисковод: Optiarc DVD RW AD-7170A   Adapter: 0  ID: 1

Режим чтения                 : Достоверность
Использование точного потока : Да
Отключение кэша аудио        : Да
Использование указателей C2  : Нет

Коррекция смещения при чтении                     : 48
Способность читать области Lead-in и Lead-out     : Нет
Заполнение пропущенных сэмплов тишиной            : Да
Удаление блоков с тишиной в начале и конце        : Нет
При вычислениях CRC использовались нулевые сэмплы : Да
Интерфейс                                         : Встроенный Win32-интерфейс для Win NT/2000

Выходной формат : Внутренние WAV-операции
Формат сэмплов  : 44.100 Гц; 16 бит; стерео

TOC извлечённого CD

     Трек |   Старт  | Длительность | Начальный сектор | Конечный сектор
    ---------------------------------------------------------------------
       1  |  0:00.00 |    4:24.00   |           0      |      19799     
       2  |  4:24.00 |    3:14.00   |       19800      |      34349     
       3  |  7:38.00 |    3:48.00   |       34350      |      51449     
       4  | 11:26.00 |    5:53.00   |       51450      |      77924     
       5  | 17:19.00 |    5:18.00   |       77925      |     101774     
       6  | 22:37.00 |    3:15.00   |      101775      |     116399     
       7  | 25:52.00 |    5:31.00   |      116400      |     141224     
       8  | 31:23.00 |    5:15.00   |      141225      |     164849     
       9  | 36:38.00 |    3:26.00   |      164850      |     180299     
      10  | 40:04.00 |    4:15.00   |      180300      |     199424     
      11  | 44:19.00 |    4:26.00   |      199425      |     219374     
      12  | 48:45.00 |    3:58.00   |      219375      |     237224     

Характеристики диапазона извлечения и сообщения об ошибках

Выбранный диапазон

     Имя файла D:\Муз раздача 5\Рок острова\Рок Острова - Наши.wav

     Пиковый уровень 99.9 %
     Качество диапазона 99.9 %
     CRC копии B952AFA7
     Копирование... OK

Ошибок не произошло

Конец отчёта

0

3

0

4

Они никогда не предадут

http://s6.uploads.ru/bzGEI.png

0


Вы здесь » Tutnet-fufla » Русская муз. Поп.дэнс.Ретро.фольк. » Рок Острова - Наши (1995) Lossless