Это интересно Скрыть

Tutnet-fufla

Объявление

Информация о пользователе

Привет, Гость! Войдите или зарегистрируйтесь.


Вы здесь » Tutnet-fufla » Музыка разных жанров » Ingrid Kup - Feel Me [Frank Duval]‡(1982) lossless&


Ingrid Kup - Feel Me [Frank Duval]‡(1982) lossless&

Сообщений 1 страница 2 из 2

1

http://s9.uploads.ru/N0rgi.gif

[24/192] Ingrid Kup - Feel Me [Frank Duval] (1982) lossless

[24/192] Ingrid Kup - Feel Me [Frank Duval] - 1982

Жанр: Pop
Год выпуска: 1982
Лейбл: TELDEC
Страна-производитель: Germany
Аудио кодек: FLAC
Тип рипа: image+.cue
Формат записи: 32/192
Формат раздачи: 24/192
Продолжительность: 42:58.000 (494976000 samples)

Треклист:

01. Love What’s Your Face 4:06
02. What’s There About Her 5:06
03. Hey Butterfly 3:32
04. Song Of Hope 4:15
05. I’d Like To Be Your Woman 4:34
06. Feel Me 3:59
07. I Will Not Die 3:55
08. Do You Remember 5:24
09. Tears In Your Eyes 4:05
10. Life Goes On 4:02

Оцифровка выполнена: bazar спиздил митя с вт
Код класса состояния винила: VG
Устройство воспроизведения: Echnics SL-1200MK5
Предварительный усилитель: PS audio GCPH Mod1
АЦП: LynxTwo
Программа-оцифровщик: LynxTwo

       
https://yadi.sk/mail/?hash=D1r6AEQchjWd2lx7TtT27tDijIXE4SAtm/NG0bn6SQA=&uid=252251247

0

2

Все благодарности админу вт Tomas ушедшему по болезни из жизни   
вечная память

Гр.Сибирь - Первый альбом 2003 (Lossless)

Исполнитель  Гр.Сибирь
Альбом Первый альбом 2003
Жанр Шансон
Содержание
01.На цветочных полях
02.Плечевая
03.Мама, не горюй
04.Письмо
05.Подруженьки
06.Не молчи
07.Дама для души
08.Несерьёзная, непутёвая
09.Двери зоны
10.В ресторане
11.Карты
12.Случай в поезде

Добавлена опция для восстановления 3%
EAC, FLAC, CUE, LOG, Covers

Exact Audio Copy V0.99 prebeta 5 from 4. May 2009

Отчёт EAC об извлечении, выполненном 26. июля 2009, 9:08

Сибирь / Первый альбом

Дисковод: TSSTcorpCDDVDW SH-S223F Adapter: 2 ID: 0

Режим чтения : Достоверность
Использование точного потока : Да
Отключение кэша аудио : Да
Использование указателей C2 : Нет

Коррекция смещения при чтении : 6
Способность читать области Lead-in и Lead-out : Нет
Заполнение пропущенных сэмплов тишиной : Да
Удаление блоков с тишиной в начале и конце : Нет
При вычислениях CRC использовались нулевые сэмплы : Да
Интерфейс : Встроенный Win32-интерфейс для Win NT/2000

Выходной формат : Внутренние WAV-операции
Формат сэмплов : 44.100 Гц; 16 бит; стерео

TOC извлечённого CD

Трек | Старт | Длительность | Начальный сектор | Конечный сектор
---------------------------------------------------------------------
1 | 0:00.00 | 5:07.02 | 0 | 23026
2 | 5:07.02 | 3:23.10 | 23027 | 38261
3 | 8:30.12 | 4:10.48 | 38262 | 57059
4 | 12:40.60 | 4:50.68 | 57060 | 78877
5 | 17:31.53 | 3:44.12 | 78878 | 95689
6 | 21:15.65 | 4:08.37 | 95690 | 114326
7 | 25:24.27 | 4:25.24 | 114327 | 134225
8 | 29:49.51 | 3:31.21 | 134226 | 150071
9 | 33:20.72 | 3:36.64 | 150072 | 166335
10 | 36:57.61 | 3:16.57 | 166336 | 181092
11 | 40:14.43 | 5:44.30 | 181093 | 206922
12 | 45:58.73 | 4:52.47 | 206923 | 228869

Характеристики диапазона извлечения и сообщения об ошибках

Выбранный диапазон

Имя файла C:\Documents and Settings\Vladimir\Рабочий стол\Сибирь - Первый альбом 2003\Сибирь - Первый альбом.wav

Пиковый уровень 98.8 %
Качество диапазона 100.0 %
CRC копии E89F01C5
Копирование... OK

Ошибок не произошло

Конец отчёта

https://yadi.sk/mail/?hash=aluiJ9cWSL9kq0+GIhuFAyW7lYJNOqXctWN9rGy8eGk=&uid=529909748

0


Вы здесь » Tutnet-fufla » Музыка разных жанров » Ingrid Kup - Feel Me [Frank Duval]‡(1982) lossless&