Tutnet-fufla

Объявление

Введите здесь ваше объявление.

Информация о пользователе

Привет, Гость! Войдите или зарегистрируйтесь.


Вы здесь » Tutnet-fufla » Аркадий Северный Записи и концерты » Аркадий Северный , Николай Резанов ,‡ Владимир Роменский &


Аркадий Северный , Николай Резанов ,‡ Владимир Роменский &

Сообщений 1 страница 2 из 2

1

Данную запись лучшего оц. инт имевшего свою студию звукозаписи в москве  предоставил сруль саломонович (дмитрий)
Мне очень интересно ваше мнение по кач. По моему твёрдому убеждению подающей аппарат просто запылился и не прошёл профилактику ...

http://se.uploads.ru/QF2X9.jpg


(24/96) Аркадий Северный , Николай Резанов ,
Владимир Роменский (гитарные посиделки под водочку) (lossless)

Оцифровка Борис 63   с катушки.

https://yadi.sk/mail/?hash=zt5KuPOvk4lIov03MU9Gtw4lmOl1JLrrPylfGulABV8=&uid=475648199
https://yadi.sk/mail/?hash=pS+7ZhqUpyHYfc+bja8N3AvaWd+UMYV4gIa1gh4FdVI=&uid=475648199

0

2

Ребята митька трек лист прислал и куй . Надо спасибо сказать он так старался
Ведь ценит этот ресурс. он Щас по трекам всё зальёт и скинет

.......................................

Сторона А:

01 А. Северный и Н.Резанов - Синее, зеленое, красное, лиловое...
02 А. Северный и Н.Резанов - Ты меня когда-нибудь увидишь...
03 А. Северный - Ты уехала на далекий срок...
04 Н.Резанов - Мне даже в мыслях не найти...
05 Н.Резанов - Били стрелки часов на слепой стене...
06 А. Северный - Вьюжится от холода ночь...
07 А. Северный и Н.Резанов - Не рассказывай мне про БАМ...
08 А. Северный и Н.Резанов - Последний бросок и в ножны клинок...
09 А. Северный - К чему скрывать, что страсть остыть успела...
10 А. Северный - Позабуду тебя, позабуду...
11 А. Северный и Н.Резанов - Окончен путь, устала грудь...
12 Н.Резанов - За казенным столом, за зеленым сукном...
13 А. Северный и Н.Резанов - Как под Ростовом-на-Дону...
14 Н.Резанов - После встряски в жизни моей...
15 А. Северный - Даже берег Лазурного моря...
16 А. Северный - Что это за ордена на блатной груди...
17 А. Северный - Жил был хутор (обрыв)

Сторона Б:

01 А. Северный и Н.Резанов - До свиданья, друг мой, до свиданья...
02 А. Северный - Как хотел бы я стать Есениным...
03 А. Северный - Ты меня когда-нибудь увидишь...
04 Н.Резанов - Жду тебя, приди скорее...
05 А. Северный - Разбуди меня завтра рано...
06 А. Северный - Пой, мой друг, на проклятой гитаре...
07 А. Северный - Ей восемнадцать только что исполнилось…
08 А. Северный - Все меломаны Ленинграда… (Песня о себе)
09 А. Северный - Скоро срок окончится
10 А. Северный - Не тот лукав, кто в Бога верит, и каждый день во Храм идёт…
11 А. Северный - Теперь все воют по стране, канают в заграничном, а мне в тюрьме, а мне в тюрьме, работы нет приличной

REM GENRE Chanson
REM DATE 1980
REM COMMENT "Оцифровка - Борис 63"
TITLE "У Раменского"
PERFORMER "А. Северный, Н. Резанов, В. Тихомиров"
FILE "1.flac" WAVE
  TRACK 01 AUDIO
TITLE "Синее, зеленое, красное, лиловое..."
PERFORMER "А. Северный и Н.Резанов"
    INDEX 01 00:02:31
  TRACK 02 AUDIO
TITLE "Ты меня когда-нибудь увидишь..."
PERFORMER "А. Северный и Н.Резанов"
    INDEX 01 04:10:74
  TRACK 03 AUDIO
TITLE "Ты уехала на далекий срок..."
PERFORMER "А. Северный"
    INDEX 01 07:31:04
  TRACK 04 AUDIO
TITLE "Мне даже в мыслях не найти..."
PERFORMER "Н.Резанов"
    INDEX 01 10:41:31
  TRACK 05 AUDIO
TITLE "Били стрелки часов на слепой стене..."
PERFORMER "Н.Резанов"
    INDEX 01 12:22:64
  TRACK 06 AUDIO
TITLE "Вьюжится от холода ночь..."
PERFORMER "А. Северный"
    INDEX 01 14:50:20
  TRACK 07 AUDIO
TITLE "Не рассказывай мне про БАМ..."
PERFORMER "А. Северный и Н.Резанов"
    INDEX 01 19:05:26
  TRACK 08 AUDIO
TITLE "Последний бросок и в ножны клинок..."
PERFORMER "А. Северный и Н.Резанов"
    INDEX 01 22:23:53
  TRACK 09 AUDIO
TITLE "К чему скрывать, что страсть остыть успела..."
PERFORMER "А. Северный"
    INDEX 01 25:45:25
  TRACK 10 AUDIO
TITLE "Позабуду тебя, позабуду..."
PERFORMER "А. Северный"
    INDEX 01 29:14:69
  TRACK 11 AUDIO
TITLE "Окончен путь, устала грудь..."
PERFORMER "А. Северный и Н.Резанов"
    INDEX 01 32:02:61
  TRACK 12 AUDIO
TITLE "За казенным столом, за зеленым сукном..."
PERFORMER "Н.Резанов"
    INDEX 01 37:08:00
  TRACK 13 AUDIO
TITLE "Как под Ростовом-на-Дону..."
PERFORMER "А. Северный и Н.Резанов"
    INDEX 01 39:27:66
TRACK 14 AUDIO
TITLE "После встряски в жизни моей..."
PERFORMER "Н.Резанов"
    INDEX 01 40:31:27
TRACK 15 AUDIO
TITLE "Даже берег Лазурного моря..."
PERFORMER "А. Северный"
    INDEX 01 41:50:41
TRACK 16 AUDIO
TITLE "Что это за ордена на блатной груди..."
PERFORMER "А. Северный"
    INDEX 01 46:15:52
TRACK 17 AUDIO
TITLE "Жил был хутор (обрыв)"
PERFORMER "А. Северный"
    INDEX 01 48:25:28

.............................

REM GENRE Chanson
REM DATE 1980
REM COMMENT "Оцифровка - Борис 63"
TITLE "У Раменского"
PERFORMER "А. Северный, Н. Резанов, В. Тихомиров"
FILE "2.flac" WAVE
  TRACK 01 AUDIO
TITLE "До свиданья, друг мой, до свиданья..."
PERFORMER "А. Северный и Н.Резанов"
    INDEX 01 00:00:00
  TRACK 02 AUDIO
TITLE "Как хотел бы я стать Есениным..."
PERFORMER "А. Северный"
    INDEX 01 01:31:70
  TRACK 03 AUDIO
TITLE "Ты меня когда-нибудь увидишь..."
PERFORMER "А. Северный"
    INDEX 01 04:45:20
  TRACK 04 AUDIO
TITLE "Жду тебя, приди скорее..."
PERFORMER "Н.Резанов"
    INDEX 01 08:19:47
  TRACK 05 AUDIO
TITLE "Разбуди меня завтра рано..."
PERFORMER "А. Северный"
    INDEX 01 10:01:44
  TRACK 06 AUDIO
TITLE "Пой, мой друг, на проклятой гитаре..."
PERFORMER "А. Северный"
    INDEX 01 13:00:59
  TRACK 07 AUDIO
TITLE "Ей восемнадцать только что исполнилось…"
PERFORMER "А. Северный"
    INDEX 01 16:56:65
  TRACK 08 AUDIO
TITLE "Все меломаны Ленинграда… (Песня о себе)"
PERFORMER "А. Северный"
    INDEX 01 22:10:35
  TRACK 09 AUDIO
TITLE "Скоро срок окончится"
PERFORMER "А. Северный"
    INDEX 01 28:20:10
  TRACK 10 AUDIO
TITLE "Не тот лукав, кто в Бога верит, и каждый день во Храм идёт…"
PERFORMER "А. Северный"
    INDEX 01 31:00:42
  TRACK 11 AUDIO
TITLE "Теперь все воют по стране, канают в заграничном, а мне в тюрьме, а мне в тюрьме, работы нет приличной"
PERFORMER "А. Северный"
    INDEX 01 45:49:66

0


Вы здесь » Tutnet-fufla » Аркадий Северный Записи и концерты » Аркадий Северный , Николай Резанов ,‡ Владимир Роменский &