Это интересно Скрыть

Tutnet-fufla

Информация о пользователе

Привет, Гость! Войдите или зарегистрируйтесь.


Вы здесь » Tutnet-fufla » Оцифровки ВИНИЛА » [24/96] Борис Рубашкин - Песнь Атамана (1991) Lossless


[24/96] Борис Рубашкин - Песнь Атамана (1991) Lossless

Сообщений 1 страница 2 из 2

1

Все благодарности Борис 63
Спасибо Борь и извини меня
Но коль ты решил поделиться муз. Люди не должны унижаться перед димулей
и выслушивать оскорбления

[24/96] Борис Рубашкин - Песнь Атамана (1991) Lossless

http://i55.fastpic.ru/big/2014/0428/43/298ddbd434a5a16e9cb661ed5d55fd43.jpg

Код:
REM GENRE "FOLK"
REM DATE 1991
REM COMMENT "Оцифровка - Борис 63"
TITLE "Песнь Атамана"
PERFORMER "Борис Рубашкин"
FILE "Рубашкин-1.flac" WAVE
  TRACK 01 AUDIO
TITLE "Я ехал к Вам"
PERFORMER "Борис Рубашкин"
    INDEX 01 00:02:51
  TRACK 02 AUDIO
TITLE "Песня старого гусара"
PERFORMER "Борис Рубашкин"
    INDEX 01 02:35:23
  TRACK 03 AUDIO
TITLE "Музыка леса"
PERFORMER "Борис Рубашкин"
    INDEX 01 06:13:15
  TRACK 04 AUDIO
TITLE "Песнь Атамана"
PERFORMER "Борис Рубашкин"
    INDEX 01 09:50:48
  TRACK 05 AUDIO
TITLE "В дымке-невидимке"
PERFORMER "Борис Рубашкин"
    INDEX 01 14:04:48
  TRACK 06 AUDIO
TITLE "Русская песня"
PERFORMER "Борис Рубашкин"
    INDEX 01 15:36:41
FILE "Рубашкин-2.flac" WAVE
  TRACK 07 AUDIO
TITLE "Эх, давно ли, давно"
PERFORMER "Борис Рубашкин"
    INDEX 01 00:02:68
  TRACK 08 AUDIO
TITLE "На холмах Грузии"
PERFORMER "Борис Рубашкин"
    INDEX 01 03:12:12
  TRACK 09 AUDIO
TITLE "Поцелуй"
PERFORMER "Борис Рубашкин"
    INDEX 01 05:40:34
  TRACK 10 AUDIO
TITLE "Свечи нагорели"
PERFORMER "Борис Рубашкин"
    INDEX 01 07:51:56
    TRACK 11 AUDIO
TITLE "Жизнь промелькнула"
PERFORMER "Борис Рубашкин"
    INDEX 01 10:59:07
  TRACK 12 AUDIO
TITLE "Веселый кабачок"
PERFORMER "Борис Рубашкин"
    INDEX 01 13:32:04
  TRACK 13 AUDIO
TITLE "Простите, верные дубравы"
PERFORMER "Борис Рубашкин"
    INDEX 01 16:15:25
       

FLAC+CUE:

http://yadi.sk/d/M-7cS0lsJjYKY

mp3---320 kbps:

http://yadi.sk/d/9MhnQhylJjY7E

0

2

http://s9.uploads.ru/N0rgi.gif

0


Вы здесь » Tutnet-fufla » Оцифровки ВИНИЛА » [24/96] Борис Рубашкин - Песнь Атамана (1991) Lossless