Это интересно Скрыть

Tutnet-fufla

Объявление

Информация о пользователе

Привет, Гость! Войдите или зарегистрируйтесь.


Вы здесь » Tutnet-fufla » Оцифровки ВИНИЛА » [24/96] Жанна Бичевская (1987 (1989)) Lossless


[24/96] Жанна Бичевская (1987 (1989)) Lossless

Сообщений 1 страница 3 из 3

1

Все благодарности Борис 63 Спасибо Борь и извини меня Но коль ты решил поделиться муз. Люди не должны унижаться перед димулей и выслушивать оскорбления

[24/96] Жанна Бичевская (1987 (1989)) Lossless

оцифровка с винила

CUE:

Код:
REM GENRE "фолк"
REM DATE 1987 (1989))
REM COMMENT "Оцифровка - Борис 63"
TITLE "Жанна Бичевская-87"
PERFORMER "Жанна Бичевская"
FILE "1.flac" WAVE
  TRACK 01 AUDIO
TITLE "Слишком короток век"
PERFORMER "Жанна Бичевская"
    INDEX 01 00:04:55
  TRACK 02 AUDIO
TITLE "Давайте делать паузы в словах"
PERFORMER "Жанна Бичевская"
    INDEX 01 02:50:69
  TRACK 03 AUDIO
TITLE "Господа офицеры"
PERFORMER "Жанна Бичевская"
    INDEX 01 06:24:68
  TRACK 04 AUDIO
TITLE "Вот так она любит меня"
PERFORMER "Жанна Бичевская"
    INDEX 01 10:41:09
  TRACK 05 AUDIO
TITLE "13 декабря"
PERFORMER "Жанна Бичевская"
    INDEX 01 13:45:62
  TRACK 06 AUDIO
TITLE "О Володе Высоцком"
PERFORMER "Жанна Бичевская"
    INDEX 01 17:45:59
FILE "2.flac" WAVE
  TRACK 07 AUDIO
TITLE "Мы лишь на миг приходим в этот мир"
PERFORMER "Жанна Бичевская"
    INDEX 01 00:00:00
  TRACK 08 AUDIO
TITLE "Сжигаю мосты"
PERFORMER "Жанна Бичевская"
    INDEX 01 03:01:36
  TRACK 09 AUDIO
TITLE "Баллада о без вести пропавшем"
PERFORMER "Жанна Бичевская"
    INDEX 01 07:08:04
  TRACK 10 AUDIO
TITLE "Старые паруса"
PERFORMER "Жанна Бичевская"
    INDEX 01 10:44:06
  TRACK 11 AUDIO
TITLE "Под музыку Вивальди"
PERFORMER "Жанна Бичевская"
    INDEX 01 14:26:72
  TRACK 12 AUDIO
TITLE "Проводы погибших юнкеров"
PERFORMER "Жанна Бичевская"
    INDEX 01 18:51:53
         
1 сторона

https://disk.yandex.ru/public/?hash=ZpviM5o2jAKSpg+kHFK28q6YMEi6p6Ra2M4yIUpTq4A=

2 сторона

https://disk.yandex.ru/public/?hash=SyiZu4P8vuuxV1D/v5IejUpjL3Wthe5YiCNBeVVXF9c=

0

2

http://i70.fastpic.ru/big/2015/0914/84/11839992e1ccc64d7bc8e21acda2f184.jpg

0

3

0


Вы здесь » Tutnet-fufla » Оцифровки ВИНИЛА » [24/96] Жанна Бичевская (1987 (1989)) Lossless