Tutnet-fufla

Объявление

Введите здесь ваше объявление.

Информация о пользователе

Привет, Гость! Войдите или зарегистрируйтесь.


Вы здесь » Tutnet-fufla » Отечественный шансон.Авторская песня » [24/96] Сергей Бурмистров - Я вернулся к тебе (1991) Lossless


[24/96] Сергей Бурмистров - Я вернулся к тебе (1991) Lossless

Сообщений 1 страница 2 из 2

1

Борис и Игорь Спасибо Вам за то. что поделились с людьми муз.
Боря видит бог я не хотел так поступать
.

[24/96] Сергей Бурмистров - Я вернулся к тебе (1991) Lossless

Оцифровка Бориса 63 с пластинки ИГОРЯ! Спасибо
не забываем ему говорить!

Код:
REM GENRE "Shanson"
REM DATE 1991
REM COMMENT "Оцифровка - Борис 63"
TITLE "Я вернусь к тебе"
PERFORMER "Сергей Бурмистров"
FILE "Сергей Бурмистров-1.flac" WAVE
  TRACK 01 AUDIO
TITLE "Далеко"
PERFORMER "Сергей Бурмистров"
    INDEX 01 00:04:00
  TRACK 02 AUDIO
TITLE "Милая"
PERFORMER "Сергей Бурмистров"
    INDEX 01 03:36:24
  TRACK 03 AUDIO
TITLE "Штопор"
PERFORMER "Сергей Бурмистров"
    INDEX 01 09:31:30
  TRACK 04 AUDIO
TITLE "Пой певица"
PERFORMER "Сергей Бурмистров"
    INDEX 01 13:59:50
FILE "Сергей Бурмистров-2.flac" WAVE
  TRACK 05 AUDIO
TITLE "Я вернусь к тебе"
PERFORMER "Сергей Бурмистров"
    INDEX 01 00:03:23
  TRACK 06 AUDIO
TITLE "Катится"
PERFORMER "Сергей Бурмистров"
    INDEX 01 06:15:04
  TRACK 07 AUDIO
TITLE "Верочка"
PERFORMER "Сергей Бурмистров"
    INDEX 01 10:23:48
  TRACK 08 AUDIO
TITLE "Братишка"
PERFORMER "Сергей Бурмистров"
    INDEX 01 14:16:49
   
FLAC+CUE:

http://yadi.sk/d/8rnoKIFrK9Yms

mp3--320 kbps:

http://yadi.sk/d/I179qXpuK9YpA

0

2

http://savepic.ru/12815641.jpg
http://savepic.ru/12819737.jpg

0


Вы здесь » Tutnet-fufla » Отечественный шансон.Авторская песня » [24/96] Сергей Бурмистров - Я вернулся к тебе (1991) Lossless