Tutnet-fufla

Объявление

Введите здесь ваше объявление.

Информация о пользователе

Привет, Гость! Войдите или зарегистрируйтесь.


Вы здесь » Tutnet-fufla » Отечественный шансон.Авторская песня » Константин Беляев -на хате у ВОЛОКИТИНА- 25.10.1998 года


Константин Беляев -на хате у ВОЛОКИТИНА- 25.10.1998 года

Сообщений 1 страница 2 из 2

1

Здравствуйте Господа. Данные записи не украдены.
а приватизированы у спившигося шизофреника с вт
дмитрия который наз.
себя Админ. муз. группы..... Никогда он не был Админ. ВТ
Это самозванец который банит и оскорбляет пользователей .
провацируя их на оскорбления.

Оцифровка с кассеты из личной коллекции
Борис 63
Спасибо Боря

http://f16.ifotki.info/thumb/5de5ed3851eb36eadcb24661804f30f35f1aeb183059144.jpg

CUE:

Код:
REM GENRE "Shanson"
REM DATE 1998
REM COMMENT "Оцифровка - Борис 63"
TITLE "на хате у ВОЛОКИТИНА- 25.10.1998 года"
PERFORMER "Костя Беляев"
FILE "Сторона 1.flac" WAVE
  TRACK 01 AUDIO
TITLE "Вступление"
PERFORMER "Костя Беляев"
    INDEX 01 00:01:69
  TRACK 02 AUDIO
TITLE "Споём, жиган!"
PERFORMER "Костя Беляев"
    INDEX 01 01:02:67
  TRACK 03 AUDIO
TITLE "Романс о премьерах"
PERFORMER "Костя Беляев"
    INDEX 01 03:38:16
  TRACK 04 AUDIO
TITLE "За братков"
PERFORMER "Костя Беляев"
    INDEX 01 06:46:48
  TRACK 05 AUDIO
TITLE "Куплеты Евы (новый вариант)"
PERFORMER "Костя Беляев"
    INDEX 01 09:18:71
  TRACK 06 AUDIO
TITLE "Чередой за вагоном вагон"
PERFORMER "Костя Беляев"
    INDEX 01 12:30:40
  TRACK 07 AUDIO
TITLE "Жора, подержи мой макентош"
PERFORMER "Костя Беляев"
    INDEX 01 14:45:65
  TRACK 08 AUDIO
TITLE "По шпалам (новый вариант)"
PERFORMER "Костя Беляев"
    INDEX 01 16:46:15
  TRACK 09 AUDIO
TITLE "Постой, паровоз!"
PERFORMER "Костя Беляев"
    INDEX 01 22:01:08
  TRACK 10 AUDIO
TITLE "Шумит, ликует Ленинград"
PERFORMER "Костя Беляев"
    INDEX 01 24:33:13
  TRACK 11 AUDIO
TITLE "Когда я был мальчишкой..."
PERFORMER "Костя Беляев"
    INDEX 01 26:29:59
  TRACK 12 AUDIO
TITLE "Абраша"
PERFORMER "Костя Беляев"
    INDEX 01 27:31:16
  TRACK 13 AUDIO
TITLE "Шутки морские"
PERFORMER "Костя Беляев"
    INDEX 01 29:47:20
  TRACK 14 AUDIO
TITLE "Пятеро фартовых ребятишек"
PERFORMER "Костя Беляев"
    INDEX 01 35:56:64
  TRACK 15 AUDIO
TITLE "Мы познакомились на клубной вечеринке (новый вариант)"
PERFORMER "Костя Беляев"
    INDEX 01 39:11:40
  TRACK 16 AUDIO
TITLE "Лодочка блатная"
PERFORMER "Костя Беляев"
    INDEX 01 42:29:23
  TRACK 17 AUDIO
TITLE "Заключение 1 части концерта"
PERFORMER "Костя Беляев"
    INDEX 01 44:16:43
FILE "Сторона 2.flac" WAVE
  TRACK 18 AUDIO
TITLE "О теории относительности"
PERFORMER "Костя Беляев"
    INDEX 01 00:03:66
  TRACK 19 AUDIO
TITLE "Городской романс"
PERFORMER "Костя Беляев"
    INDEX 01 04:10:13
  TRACK 20 AUDIO
TITLE "Красный треугольник"
PERFORMER "Костя Беляев"
    INDEX 01 07:17:37
  TRACK 21 AUDIO
TITLE "Белые столбы"
PERFORMER "Костя Беляев"
    INDEX 01 13:07:66
  TRACK 22 AUDIO
TITLE "Леночка Потапова"
PERFORMER "Костя Беляев"
    INDEX 01 16:35:34
  TRACK 23 AUDIO
TITLE "Баллада о сознательности"
PERFORMER "Костя Беляев"
    INDEX 01 21:03:16
  TRACK 24 AUDIO
TITLE "Как пить на троих"
PERFORMER "Костя Беляев"
    INDEX 01 24:26:48
  TRACK 25 AUDIO
TITLE "Трилогия о Климе Коломейце-1"
PERFORMER "Костя Беляев"
    INDEX 01 27:36:55
  TRACK 26 AUDIO
TITLE "Трилогия о Климе Коломейце-2"
PERFORMER "Костя Беляев"
    INDEX 01 32:03:30
  TRACK 27 AUDIO
TITLE "Трилогия о Климе Коломейце-3"
PERFORMER "Костя Беляев"
    INDEX 01 36:23:66
  TRACK 28 AUDIO
TITLE "Про генеральскую дочку"
PERFORMER "Костя Беляев"
    INDEX 01 40:53:21
  TRACK 29 AUDIO
TITLE "Запой под Новый год"
PERFORMER "Костя Беляев"
    INDEX 01 46:13:20
Скачать FLAC+CUE в формате 24.96:

https://disk.yandex.ru/public/?hash=XzhYGDm5wQgDPCqt0qdVoy9wuwMPUaIC10Pf845GDi4=

0

2

сруль саломоновичь поясни народу это на чём ты придурок обрабатывал???
ты придурок анус свой обработай от микробов... ползоют они и в мозг твой уже проникли

http://f16.ifotki.info/org/51ff5ec9ef2c3c851c446ced1d86937d5f1aeb183063847.png

http://www10.zippyshare.com/v/78377516/file.html

0


Вы здесь » Tutnet-fufla » Отечественный шансон.Авторская песня » Константин Беляев -на хате у ВОЛОКИТИНА- 25.10.1998 года