Tutnet-fufla

Объявление

Введите здесь ваше объявление.

Информация о пользователе

Привет, Гость! Войдите или зарегистрируйтесь.


Вы здесь » Tutnet-fufla » Отечественный шансон.Авторская песня » [24/96] Владимир Шандриков - Запись у Юрия Пенькова (1975) Lossless


[24/96] Владимир Шандриков - Запись у Юрия Пенькова (1975) Lossless

Сообщений 1 страница 2 из 2

1

Доброго время суток господа и дамы. Данные записи .альбомы не украдены .
а приватизированы у спившигося негодяя с вт который наз. себя Админ. муз. группы который
провацирует и оскорбляет пользователей выводя их
на оскорбления в адрес друг друга .. Это не оговор ... Это правда
Спасибо тому чел. кто счёл нужным поделиться и выставил в сеть Кто сидел и цифр. запись
чтоб люди могли послушать любимую муз.


Все благодарности  Борис 63
Спасибо Боря ...........

[24/96] Владимир Шандриков - Запись у Юрия Пенькова (1975) Lossless

CUE:

Код:
REM GENRE "Shanson"
REM DATE 1975
REM COMMENT "Оцифровка - Борис 63"
TITLE "У Юрия Пенькова"
PERFORMER "Владимир Шандриков"
FILE "Шандриков-1.flac" WAVE
  TRACK 01 AUDIO
TITLE "Баллада о цвете"
PERFORMER "Владимир Шандриков"
    INDEX 01 00:05:72
  TRACK 02 AUDIO
TITLE "Память"
PERFORMER "Владимир Шандриков"
    INDEX 01 05:09:10
  TRACK 03 AUDIO
TITLE "Танцуют в зале парно..."
PERFORMER "Владимир Шандриков"
    INDEX 01 08:36:56
  TRACK 04 AUDIO
TITLE "Солёные рубашки"
PERFORMER "Владимир Шандриков"
    INDEX 01 10:18:67
  TRACK 05 AUDIO
TITLE "Всемогущий Виннету"
PERFORMER "Владимир Шандриков"
    INDEX 01 13:57:37
  TRACK 06 AUDIO
TITLE "Последний бизон"
PERFORMER "Владимир Шандриков"
    INDEX 01 19:19:57
  TRACK 07 AUDIO
TITLE "Атавизм"
PERFORMER "Владимир Шандриков"
    INDEX 01 23:54:04
  TRACK 08 AUDIO
TITLE "Нищенская застольная"
PERFORMER "Владимир Шандриков"
    INDEX 01 26:47:05
  TRACK 09 AUDIO
TITLE "Студенческая песня"
PERFORMER "Владимир Шандриков"
    INDEX 01 29:50:69
  TRACK 10 AUDIO
TITLE "Ресторанные дюймовочки"
PERFORMER "Владимир Шандриков"
    INDEX 01 32:13:69
  TRACK 11 AUDIO
TITLE "Про русского Ивана"
PERFORMER "Владимир Шандриков"
    INDEX 01 34:43:04
  TRACK 12 AUDIO
TITLE "Я на свалке поломанных судеб..."
PERFORMER "Владимир Шандриков"
    INDEX 01 38:29:68
  TRACK 13 AUDIO
TITLE "Про лихого"
PERFORMER "Владимир Шандриков"
    INDEX 01 40:49:16
  TRACK 14 AUDIO
TITLE "В кольце неудач"
PERFORMER "Владимир Шандриков"
    INDEX 01 43:19:55
FILE "Шандриков-2.flac" WAVE
  TRACK 15 AUDIO
TITLE "Показания невиновного"
PERFORMER "Владимир Шандриков"
    INDEX 01 00:05:23
  TRACK 16 AUDIO
TITLE "Один за всех"
PERFORMER "Владимир Шандриков"
    INDEX 01 03:07:28
  TRACK 17 AUDIO
TITLE "Грустная вокзальная"
PERFORMER "Владимир Шандриков"
    INDEX 01 05:35:41
  TRACK 18 AUDIO
TITLE "Вот я и снова стою на пороге..."
PERFORMER "Владимир Шандриков"
    INDEX 01 09:29:57
  TRACK 19 AUDIO
TITLE "Мне 33"
PERFORMER "Владимир Шандриков"
    INDEX 01 12:35:02
  TRACK 20 AUDIO
TITLE "Утренняя песня"
PERFORMER "Владимир Шандриков"
    INDEX 01 14:50:61
  TRACK 21 AUDIO
TITLE "Заядлый курильщик"
PERFORMER "Владимир Шандриков"
    INDEX 01 17:47:10
  TRACK 22 AUDIO
TITLE "Поговорим за жизнь (вариант 1)"
PERFORMER "Владимир Шандриков"
    INDEX 01 20:27:04
  TRACK 23 AUDIO
TITLE "Поговорим за жизнь (вариант 2)"
PERFORMER "Владимир Шандриков"
    INDEX 01 24:56:14
  TRACK 24 AUDIO
TITLE "Многостоящий утюг"
PERFORMER "Владимир Шандриков"
    INDEX 01 29:27:53
  TRACK 25 AUDIO
TITLE "Воспоминания о будущем"
PERFORMER "Владимир Шандриков"
    INDEX 01 32:36:18
  TRACK 26 AUDIO
TITLE "Мои берега"
PERFORMER "Владимир Шандриков"
    INDEX 01 35:08:29
  TRACK 27 AUDIO
TITLE "Я и мой сосед Хаим"
PERFORMER "Владимир Шандриков"
    INDEX 01 39:33:15
TRACK 28 AUDIO
TITLE "Водка выпита вся и до дна"
PERFORMER "Владимир Шандриков"
    INDEX 01 41:38:08
  TRACK 29 AUDIO
TITLE "Цыгане"
PERFORMER "Владимир Шандриков"
    INDEX 01 43:50:47

   
FLAC+CUE:

http://yadi.sk/d/WQ10ugPVK6Dp2

=============

mp3--320 kbps:

http://yadi.sk/d/57GF_Dg6K6Dqu

0

2

Парни Вы скачивая запись хоть Спасибо напишите кто сидел и цифровал..
Уважайте его и его труд ....

0


Вы здесь » Tutnet-fufla » Отечественный шансон.Авторская песня » [24/96] Владимир Шандриков - Запись у Юрия Пенькова (1975) Lossless