Tutnet-fufla

Объявление

Введите здесь ваше объявление.

Информация о пользователе

Привет, Гость! Войдите или зарегистрируйтесь.


Вы здесь » Tutnet-fufla » Шансон в форм. lossless » Группа "Мамочка" - Ну ни фига себе (1992) Lossless


Группа "Мамочка" - Ну ни фига себе (1992) Lossless

Сообщений 1 страница 6 из 6

1

Доброго время суток господа и дамы. Данные записи .альбомы не украдены .
а приватизированы у спившигося негодяя с вт который наз. себя Админ. муз. группы который
провацирует и оскорбляет пользователей выводя их
на оскорбления в адрес друг друга .. Это не оговор ... Это правда
Спасибо тому чел. кто счёл нужным поделиться и выставил в сеть Кто сидел и цифр. запись
чтоб люди могли послушать любимую муз.

Группа "Мамочка" - Ну ни фига себе (1992) Lossless

Исполнитель: Группа "Мамочка"
Альбом: Ну ни фига себе (24/96)
Год выпуска: 1991
Жанр: Шансон
Аудио кодек: APE
Тип рипа: tracks
Битрейт аудио: lossless (24/96)
Размер архива: 680 МБ

01 Интро (Вступление)
02 Отдыхайте, товарищи (Дядя Джонни)
03 Нет сионизму
04 Песня про Ё (Окроха)
05 Песня про любовь (Трах)
06 Мамочка
07 Зеленая ограда (Зоя)
08 Куй железо, пока Горбачев (Горби)
09 Противогаз (Спид)
10 Про Дуню - дурочку (Дуня)
11 Кода

http://narod.yandex.ru/disk/48872579001.533a56d4a7def0f20c7db6fcbde3165f/Mamochka - Nu ni figa sebe (Omsk,%201991).part1.rar.html

http://narod.yandex.ru/disk/48872426001.4e86791158fb6d83890afc8a7776c872/Mamochka - Nu ni figa sebe (Omsk,%201991).part2.rar.html

0

2

.......................................

0

3

Ну что послушал пряник решили по новый гов..и раскачать торговля не идёт видно у вас не мог. не записями ........

0

4

Оц лучшего оц в сети инт он имел студию звукозаписи даже ...

http://sf.uploads.ru/d9ZXE.png

https://yadi.sk/mail/?hash=m002ODPUcC3fPOCL2diODBuqHJcahzXRtgX3X1ti6r8=&uid=475648199

REM GENRE "Поп"
REM DATE 1991
REM COMMENT "Оцифровка - Борис 63"
TITLE "Ну ни фига себе!"
PERFORMER "Мамочка"
FILE "мамочка 91.flac" WAVE
  TRACK 01 AUDIO
TITLE "Все зашибись!"
PERFORMER "Мамочка"
    INDEX 01 00:00:00
  TRACK 02 AUDIO
TITLE "Что такое хорошо"
PERFORMER "Мамочка"
    INDEX 01 04:14:09
  TRACK 03 AUDIO
TITLE "Я и сам не рад"
PERFORMER "Мамочка"
    INDEX 01 07:24:66
  TRACK 04 AUDIO
TITLE "Хочу быть иностранцем"
PERFORMER "Мамочка"
    INDEX 01 11:14:40
  TRACK 05 AUDIO
TITLE "Все как один"
PERFORMER "Мамочка"
    INDEX 01 14:43:28
  TRACK 06 AUDIO
TITLE "Горбачев"
PERFORMER "Мамочка"
    INDEX 01 17:43:32
  TRACK 07 AUDIO
TITLE "СПИД"
PERFORMER "Мамочка"
    INDEX 01 20:38:23
  TRACK 08 AUDIO
TITLE "Дуня"
PERFORMER "Мамочка"
    INDEX 01 24:13:14
  TRACK 09 AUDIO
TITLE "Сабля Кибальчиша"
PERFORMER "Владимир Сайко гр.Мальчиш-Кибальчиш"
    INDEX 01 27:26:14
TRACK 10 AUDIO
TITLE "Девочка Оля"
PERFORMER "Юрий Воронов и гр.Шоу - Мэн"
    INDEX 01 30:16:31
  TRACK 11 AUDIO
TITLE "Угрюмый человек"
PERFORMER "Юрий Воронов и гр.Шоу - Мэн"
    INDEX 01 33:52:38
  TRACK 12 AUDIO
TITLE "Прощай"
PERFORMER "RADIO-ROCK / РАДИО-РОК"
    INDEX 01 37:44:22
  TRACK 13 AUDIO
TITLE "Деньги-денежки"
PERFORMER "RADIO-ROCK / РАДИО-РОК ?"
    INDEX 01 43:16:14

0

5

http://sg.uploads.ru/E9VHm.gif

0

6

Лучшей оц-к интернета прислал трек лист

http://sa.uploads.ru/W8ody.jpg

0


Вы здесь » Tutnet-fufla » Шансон в форм. lossless » Группа "Мамочка" - Ну ни фига себе (1992) Lossless