Tutnet-fufla

Объявление

Введите здесь ваше объявление.

Информация о пользователе

Привет, Гость! Войдите или зарегистрируйтесь.


Вы здесь » Tutnet-fufla » Зарубежная музыка .Отечественная Поп музыка ( » [24/96] Группа ФОРУМ - Никто не виноват (1988) Lossless


[24/96] Группа ФОРУМ - Никто не виноват (1988) Lossless

Сообщений 1 страница 2 из 2

1

Данную запись любезно предоставил модератор вт синдикат фашист
Все благодарности
Борис 63  Спасибо Боря

[24/96] Группа ФОРУМ - Никто не виноват (1988) Lossless

Оцифровка (пробная) с пластинки!

Пластинка в состоянии - на 3 по пятибальной шкале!

   

Код:
REM GENRE "POP"
REM DATE 1988
REM COMMENT "Оцифровка - Борис 63"
TITLE "Никто не виноват"
PERFORMER "группа Форум"
FILE "гр ФОРУМ 1.wav" WAVE
  TRACK 01 AUDIO
TITLE "Мечтатель (С. Романов)"
PERFORMER "группа Форум"
    INDEX 01 00:06:24
  TRACK 02 AUDIO
TITLE "Закодирована дверь (А. Поперечный)"
PERFORMER "группа Форум"
    INDEX 01 04:16:12
  TRACK 03 AUDIO
TITLE "Ты пожалеешь (М. Рябинин)"
PERFORMER "группа Форум"
    INDEX 01 08:13:07
  TRACK 04 AUDIO
TITLE "Серенада (С. Романов)"
PERFORMER "группа Форум"
    INDEX 01 11:50:26
FILE "гр ФОРУМ 2.wav" WAVE
  TRACK 05 AUDIO
TITLE "На соседней улице (Д. Демин)"
PERFORMER "группа Форум"
    INDEX 01 00:05:34
  TRACK 06 AUDIO
TITLE "Третий лишний (С. Романов)"
PERFORMER "группа Форум"
    INDEX 01 02:44:11
  TRACK 07 AUDIO
TITLE "Никто не виноват (Л. Дербенев)"
PERFORMER "группа Форум"
    INDEX 01 06:20:09
  TRACK 08 AUDIO
TITLE "Шумела синяя река (С. Романов)"
PERFORMER "группа Форум"
    INDEX 01 10:27:06
  TRACK 09 AUDIO
TITLE "Я другой (Л. Виноградова)"
PERFORMER "группа Форум"
    INDEX 01 13:40:44

ссылка 1

Скрытый текст:

Для просмотра скрытого текста - войдите или зарегистрируйтесь.

ссылка 2

Скрытый текст:

Для просмотра скрытого текста - войдите или зарегистрируйтесь.

0

2

http://www.pixic.ru/i/40b1N383m4i4J400.png

0


Вы здесь » Tutnet-fufla » Зарубежная музыка .Отечественная Поп музыка ( » [24/96] Группа ФОРУМ - Никто не виноват (1988) Lossless