Это интересно Скрыть

Tutnet-fufla

Объявление

Информация о пользователе

Привет, Гость! Войдите или зарегистрируйтесь.


Вы здесь » Tutnet-fufla » Аркадий Северный Записи и концерты » Аркадий Северный и Анатолий Мезенцев – Запись в студии Славы Сафонова


Аркадий Северный и Анатолий Мезенцев – Запись в студии Славы Сафонова

Сообщений 1 страница 5 из 5

1

Здравствуйте парни Видет бог я не хотел говнотёрок . Но Хотел бы
услышать ответ и от придурка спившигося димуле и от павлика Вы что творите ?????

Валериян  Да я напишу Спасибо за то что счёл нужным поделиться
а что они сделали с твой оц. Спроси у них .....


Аркадий Северный и Анатолий Мезенцев – Запись в студии Славы Сафонова

Исполнитель: Аркадий Северный и Анатолий Мезенцев
Альбом: Запись под две гитары (оригинал)
Год записи: июнь 1979 г., г.Тихорецк, студия Славы Сафонова
Формат: wav
Размер: 253+204+228+216 mb.
Время: 00:25:06+00:19:49+00:22:39+00:21:25

Трэклист:

Сторона А-1:

1.Вступительное слово А.Северного
2.Вернулся таки я в Одессу…
3.Не смотрите вы так сквозь прищур ваших глаз…
4.Ну, я откинулся, Слава, какой базар вокзал…
5.Вешние воды бегут с гор ручьями…
6.Я грузин аль армянин без копейки денег…
7.В Александровском саду музыка игрался… (А.Мезенцев)

Сторона А-2:

8.Четвёртые сутки пылают станицы…
9.Помню, помню, помню я, как меня мать любила…
10.Звёзды зажигаются хрустальные…
11.Помню двор занесённый снегом белым, пушистым… (А.С. и А.М.)
12. Я вам хочу рассказать анекдот… («Идёт 1898 год…)
13.А вот и Одесса – объявляет гид…
14.Наш домик под лодкою у речки…

Сторона Б-1:

1.Вступительное слово А.Северного и А.Мезенцева
2.На Дерибасовской открылася пивная…
3.Раз в Ростове-на-Дону я первый раз попал в тюрьму…
4.Ох, Ёзеф, Ёзеф, старый таки добрый Ёзеф…
5.Мне сегодня так больно, слёзы взвор твой туманят…
6.Как-то по проспекту с Манькой таки я гулял…

Сторона Б-2:

7.Я в весеннем лесу пил берёзовый сок…
8.В осенний день, бродя как тень…
9.Ну каким ж ты мене ядом напоила…
10.Часто с тобой мы гуляли в парках, аллеях, в саду…
11.В парижских балаганах, кафе и ресторанах…
12.Здравствуйте, моё почтенье…
13.Эх, натискал, так натискал, пахнет сеном от вранья…

Ссылка
от plotnik220
:

http://yadi.sk/d/Nm8_Nsc_MVes9

foobar2000 1.2.6 / Измерение динамического диапазона 1.1.1
дата измерения: 2014-04-11 18:21:26

--------------------------------------------------------------------------------
Проанализировано: А.Мезенцев / А.Северный и А.Мезенцев – Запись в студии Славы Сафонова (1)
          А.Северный и А.Мезенцев / А.Северный и А.Мезенцев – Запись в студии Славы Сафонова (2)
--------------------------------------------------------------------------------

DR       Пик         RMSДлина    Трек
--------------------------------------------------------------------------------
DR13      -1.18 дБ   -17.19 дБ      2:08 ?-В Александровском саду
DR15      -1.53 дБ   -21.23 дБ      2:05 ?-Интро
--------------------------------------------------------------------------------

Количество треков: 2
Официальное значение DR: DR14

Частота дискретизации:  44100 Гц
Каналов:                2
Бит на сэмпл:           16
Битрейт:                764 kbps
Кодек:                  FLAC
================================================================================

--------------------------------------------------------------------------------
Проанализировано: Аркадий Северный / А.Северный и А.Мезенцев – Запись в студии Славы Сафонова
--------------------------------------------------------------------------------

DR       Пик         RMSДлина    Трек
--------------------------------------------------------------------------------
DR13      -1.88 дБ   -20.01 дБ      0:41 ?-Вступление
DR14       0.00 дБ   -16.60 дБ      4:35 ?-Вернулся таки я в Одессу…
DR15      -1.55 дБ   -21.92 дБ      5:02 ?-Не смотрите вы так
DR14      -1.18 дБ   -18.58 дБ      4:30 ?-Ну, я откинулся
DR15      -1.62 дБ   -21.53 дБ      5:26 ?-Вешние воды
DR13      -0.48 дБ   -17.23 дБ      2:44 ?-Я грузин аль армянин
DR14      -1.77 дБ   -20.80 дБ      4:04 ?-Четвёртые сутки
DR13      -0.62 дБ   -17.71 дБ      2:42 ?-Помню, помню, помню я
DR13      -1.75 дБ   -19.08 дБ      3:09 ?-Звёзды зажигаются хрустальные…
DR12      -1.57 дБ   -17.73 дБ      3:49 ?-Помню двор занесённый
DR16      -1.04 дБ   -24.42 дБ      2:03 ?-Анекдот
DR14      -2.21 дБ   -21.68 дБ      2:20 ?-А вот и Одесса
DR13      -1.55 дБ   -18.06 дБ      1:41 ?-Наш домик
DR13      -0.48 дБ   -16.22 дБ      4:18 ?-На Дерибасовской
DR13      -0.87 дБ   -16.18 дБ      3:52 ?-Раз в Ростове-на-Дону
DR13      -0.15 дБ   -17.61 дБ      5:26 ?-Ох, Ёзеф, Ёзеф
DR14      -0.76 дБ   -20.01 дБ      3:19 ?-Мне сегодня так больно
DR14      -0.52 дБ   -18.19 дБ      3:40 ?-Как-то по проспекту
DR14      -0.98 дБ   -19.07 дБ      3:15 ?-Я в весеннем лесу
DR13      -0.85 дБ   -17.24 дБ      3:27 ?-В осенний день
DR12      -1.69 дБ   -17.25 дБ      2:04 ?-Каким меня ты ядом напоила
DR13      -2.82 дБ   -19.87 дБ      3:31 ?-Часто с тобой мы гуляли
DR15      -1.81 дБ   -21.89 дБ      3:53 ?-В парижских балаганах
DR14      -1.46 дБ   -18.05 дБ      3:16 ?-Здравствуйте, моё почтенье…
DR13      -1.39 дБ   -18.10 дБ      1:58 ?-Эх, натискал, так натискал
--------------------------------------------------------------------------------

Количество треков: 25
Официальное значение DR: DR14

Частота дискретизации:  44100 Гц
Каналов:                2
Бит на сэмпл:           16
Битрейт:                764 kbps
Кодек:                  FLAC
================================================================================

0

2

Это обсуждение на вт украденного релиза в который митя всунул своё рыло...

Дмитрий 
Music Group

Валериян, Давай свой вариант для вступления в наш клуб Лосслесс
по интересам (магнитоальбомам)
..........................................................
Дмитрий 
Music Group

Валериян, Вся музыка и наши песни,я перенесу в клуб любителей музыки
без потери качества.Тебе благодарность!Всё будет окей и без обид на старое,
Анатолий - третьим будет в натуре.

http://s6.uploads.ru/g1rjy.png

http://s1.uploads.ru/CpkSm.png

0

3

Разобрало меня любопытство и решил я посмотреть
вот этот вопрос задали на одном ресурсе
скажу сразу ответа там не последовало

http://sg.uploads.ru/jx8As.png

Аркадий Северный и Анатолий Мезенцев - Запись в студии Славы Сафонова
Релиз от Валериян

Жанр: шансон
Год записи: июнь 1979 г.
Производитель диска: СССР
Аудио кодек: MP3
Битрейт аудио: 320 kbps
Продолжительность: 01:28:59
:
Часть 1
1.Вступительное слово А.Северного
2.Вернулся таки я в Одессу…
3.Не смотрите вы так сквозь прищур ваших глаз…
4.Ну, я откинулся, Слава, какой базар вокзал…
5.Вешние воды бегут с гор ручьями…
6.Я грузин аль армянин без копейки денег…
7.В Александровском саду музыка игрался… (А.Мезенцев)
8.Четвёртые сутки пылают станицы…
9.Помню, помню, помню я, как меня мать любила…
10.Звёзды зажигаются хрустальные…
11.Помню двор занесённый снегом белым, пушистым… (А.С. и А.М.)
12. Я вам хочу рассказать анекдот… («Идёт 1898 год…)
13.А вот и Одесса – объявляет гид…
14.Наш домик под лодкою у речки…
Часть 2
1.Вступительное слово А.Северного и А.Мезенцева
2.На Дерибасовской открылася пивная…
3.Раз в Ростове-на-Дону я первый раз попал в тюрьму…
4.Ох, Ёзеф, Ёзеф, старый таки добрый Ёзеф…
5.Мне сегодня так больно, слёзы взвор твой туманят…
6.Как-то по проспекту с Манькой таки я гулял…
7.Я в весеннем лесу пил берёзовый сок…
8.В осенний день, бродя как тень…
9.Ну каким ж ты мене ядом напоила…
10.Часто с тобой мы гуляли в парках, аллеях, в саду…
11.В парижских балаганах, кафе и ресторанах…
12.Здравствуйте, моё почтенье…
13.Эх, натискал, так натискал, пахнет сеном от вранья…
Доп. информация: На трэки не порезано. Запись двумя файлами.

Скачать вот от сюда куя нет

https://yadi.sk/d/K7tQ7xek3QPyMW
.............................................................
вот это из первого поста вся сет этика соблюдена
митя говорит только на вт кач. записи и орегинал этого конц у него в продаже

http://s9.uploads.ru/qarsn.jpg

..............................................................
вот это то куда митя рыло всунул своё
Релиз от Валериян на вт

http://s4.uploads.ru/qGxu2.jpg

http://sa.uploads.ru/ITqrO.jpg

скачать тут

https://yadi.sk/d/mbMENbzV3QPzvu

0

4

http://sa.uploads.ru/oDcvX.png

https://yadi.sk/d/e6wphyHj3QQ3oT

0

5

[player][{n:"Вешние воды ",u:"http://d.zaix.ru/5biN.mp3",c:""}][/player]

0


Вы здесь » Tutnet-fufla » Аркадий Северный Записи и концерты » Аркадий Северный и Анатолий Мезенцев – Запись в студии Славы Сафонова