Это интересно Скрыть

Tutnet-fufla

Объявление

Информация о пользователе

Привет, Гость! Войдите или зарегистрируйтесь.


Вы здесь » Tutnet-fufla » Шансон в форм. lossless » (24/96) АЛЕКСЕЙ ШИРЯЕВ - Первый и Второй альбомы - Девушка в 120 килог


(24/96) АЛЕКСЕЙ ШИРЯЕВ - Первый и Второй альбомы - Девушка в 120 килог

Сообщений 1 страница 6 из 6

1

Здравствуйте Господа. Данный реал не украден а приватизирован
у спившигося шизофреника с вт дмитрия .
Который наз. себя Админ. муз. группы Банит
и оскорбляет пользователей чиня беспредел.
Который оскорбляет целые нации людей

Все благодарности
Борис 63  Спасибо Боря
но тут никто нечего удалять не будет ты уж извини меня


(24/96) АЛЕКСЕЙ ШИРЯЕВ - Первый и Второй альбомы - Девушка в 120 килограмм - 1990 год

Оцифровка с катушки (ОРИГИНАЛ ДРУГОЙ)

Треклист:

01. Девушка 120 килограмм
02. Вот такое значит дело: мне восьмой десяток лет
03. Ты меня целуешь Галка
04. Мы называли нежно Сашами друг друга...
05. Альфа - Ромэо
06. Инвалидные коляски
07. Ведьма
08. Черная дубинка
09. Хирурги
10. Прогулка по Москве
11. Подружка
12. Аграфена Ниловна

13. Под зарю хорошую скачут в поле лошади...(Александр Розенбаум)

CUE:

Код:
REM GENRE "Shanson"
REM DATE 1990
REM COMMENT "Оцифровка - Борис 63"
TITLE "Второй Альбом"
PERFORMER "Алексей Ширяев"
FILE "АЛЕКСЕЙ ШИРЯЕВ (второй альбом).flac" WAVE
  TRACK 01 AUDIO
TITLE "Девушка 120 килограмм"
PERFORMER "Алексей Ширяев"
    INDEX 01 00:01:53
  TRACK 02 AUDIO
TITLE "Вот такое значит дело: мне восьмой десяток лет"
PERFORMER "Алексей Ширяев"
    INDEX 01 03:08:24
  TRACK 03 AUDIO
TITLE "Ты меня целуешь Галка"
PERFORMER "Алексей Ширяев"
    INDEX 01 07:15:00
  TRACK 04 AUDIO
TITLE "Мы называли нежно Сашами друг друга..."
PERFORMER "Алексей Ширяев"
    INDEX 01 09:53:05
  TRACK 05 AUDIO
TITLE "Альфа - Ромэо"
PERFORMER "Алексей Ширяев"
    INDEX 01 12:00:41
  TRACK 06 AUDIO
TITLE "Инвалидные коляски"
PERFORMER "Алексей Ширяев"
    INDEX 01 15:02:37
  TRACK 07 AUDIO
TITLE "Ведьма"
PERFORMER "Алексей Ширяев"
    INDEX 01 20:21:64
  TRACK 08 AUDIO
TITLE "Черная дубинка"
PERFORMER "Алексей Ширяев"
    INDEX 01 25:29:66
  TRACK 09 AUDIO
TITLE "Хирурги"
PERFORMER "Алексей Ширяев"
    INDEX 01 30:01:40
  TRACK 10 AUDIO
TITLE "Прогулка по Москве"
PERFORMER "Алексей Ширяев"
    INDEX 01 32:38:16
  TRACK 11 AUDIO
TITLE "Подружка"
PERFORMER "Алексей Ширяев"
    INDEX 01 35:53:56
  TRACK 12 AUDIO
TITLE "Аграфена Ниловна"
PERFORMER "Алексей Ширяев"
    INDEX 01 38:06:46
  TRACK 13 AUDIO
TITLE "Под зарю хорошую скачут в поле лошади..."
PERFORMER "Александр Розенбаум"
    INDEX 01 40:30:64
   

Скачать FLAC+CUE:

https://yadi.sk/mail/?hash=FFPJPRW34x7Fn3y/Zrwg/cVGHQNuapziMOSZ9ySxONo=

http://s4.uploads.ru/hewq7.jpg

0

2

Все благодарности - Tolik38
Спасибо ..я не брал твоих ссылок .но и удалять тут ничего не стану
Люди не должны унижаться перед спившимся придурком димулей срулем

Алексей Ширяев – 1-й альбом 1990г (магнитоальбом)

Исполнитель: Алексей Ширяев
Альбом: 1-й альбом
Год записи: 1990
Формат: FLAC
Тип рипа: image+.cue
Битрейт аудио: lossless
Размер:288 mb
Время: 37:09

01. Девушка в 120 килограмм
02. Сеансы Кашпировского
03. Черные колготки
04. Тезка
05. Альфа - Ромэо
06. Инвалидные коляски
07. Ведьма
08. Резиновая дубинка
09. Патологоанатомы
10. Прогулка по Москве
11. Подружка

добавлено 3% на восстановление

https://yadi.sk/d/mCSfSAfEeGErM

0

3

Орег. Дан. альбома можно купить у Сруля саломоновича Там щас распродажа.

0

4

Посмотрел послушал и вопрос у меня сначала к димуле
дмитрий витальевич дайте чёткий и объективный ответ по кач. записи
Боря и у тебя спросить хочу что совсем бизнес в упадок пришёл ????

скачать

https://yadi.sk/mail/?hash=r82c1Q+Fqyi0AYVwSCtyL/iQJwW1AfRY6VgNsmqiaK4=&uid=423865181

http://sh.uploads.ru/heQgK.png

0

5

Алексей Ширяев 1990.cue

Код:
REM GENRE "Шансон"
REM DATE 1990
REM COMMENT "Оцифровка - Борис 63"
TITLE "Девушка 120 килограмм"
PERFORMER "Алексей Ширяев"
FILE "Ширяев 89.flac" WAVE
  TRACK 01 AUDIO
TITLE "Девушка 120 килограмм"
PERFORMER "Алексей Ширяев"
    INDEX 01 00:02:31
  TRACK 02 AUDIO
TITLE "Вот такое значит дело: мне восьмой десяток лет"
PERFORMER "Алексей Ширяев"
    INDEX 01 02:58:20
  TRACK 03 AUDIO
TITLE "Ты меня целуешь Галка (Черные колготки)"
PERFORMER "Алексей Ширяев"
    INDEX 01 06:46:18
  TRACK 04 AUDIO
TITLE "Мы называли нежно Сашами друг друга..."
PERFORMER "Алексей Ширяев"
    INDEX 01 09:13:20
  TRACK 05 AUDIO
TITLE "Альфа-Ромэо"
PERFORMER "Алексей Ширяев"
    INDEX 01 11:11:06
  TRACK 06 AUDIO
TITLE "Инвалидные коляски"
PERFORMER "Алексей Ширяев"
    INDEX 01 13:59:64
  TRACK 07 AUDIO
TITLE "Ведьма"
PERFORMER "Алексей Ширяев"
    INDEX 01 18:56:42
  TRACK 08 AUDIO
TITLE "Черная дубинка"
PERFORMER "Алексей Ширяев"
    INDEX 01 23:42:32
  TRACK 09 AUDIO
TITLE "Хирурги"
PERFORMER "Алексей Ширяев"
    INDEX 01 27:53:42
  TRACK 10 AUDIO
TITLE "Прогулка по Москве"
PERFORMER "Алексей Ширяев"
    INDEX 01 30:19:61
  TRACK 11 AUDIO
TITLE "Пора завязывать, подружка, наши встречи"
PERFORMER "Алексей Ширяев"
    INDEX 01 33:21:37
  TRACK 12 AUDIO
TITLE "Агрофена Ниловна"
PERFORMER "Алексей Ширяев"
    INDEX 01 35:25:41
  TRACK 13 AUDIO
TITLE "Четвертые сутки пылают станицы"
PERFORMER "Михаил Звездинский"
    INDEX 01 37:41:09
  TRACK 14 AUDIO
TITLE "Утопия"
PERFORMER "Никита Джигурда"
    INDEX 01 41:52:41
  TRACK 15 AUDIO
TITLE "Остановись, машина"
PERFORMER "Никита Джигурда"
    INDEX 01 44:26:26

0

6

Вот это люди слушать не могут говорят что супер кач.
Ширяев Алексей (в качестве)
https://yadi.sk/public/?hash=Z7WTOIC17HGyvMHOfFHtpTn3+1801eGVm5ZyzikiXTs=

не хочешь делиться не х..й выставлять и языком молоть . о подаренной записи .

=Spoiler написал(а):

Это типа,показал пряник и спрятал.
Такая же картина и с Магаданцами.


а вот это я слушаю и мне по щиколотку это супер кач...

[audio]http://d.zaix.ru/4T9n.mp3[/audio]

0


Вы здесь » Tutnet-fufla » Шансон в форм. lossless » (24/96) АЛЕКСЕЙ ШИРЯЕВ - Первый и Второй альбомы - Девушка в 120 килог