Здравствуйте Господа. Данный реал не украден
а приватизирован у спившигося шизофреника с вт дмитрия .
Который наз. себя Админ. муз. группы допился совсем
им был совершон побег из дурдомам щас он
Банит и оскорбляет пользователей
чиня беспредел. оскорбляет целые нации людей


Все благодарности Админу ВТ ушедшему по болезни
из жизни . Спасибо - Tomas 

Яша Боярский - Малина 2005 (Lossless)

Исполнитель Яша Боярский
Альбом Малина 2005
Жанр Шансон
Содержание
01.Малина
02.На вокзале, на Киевском, вечером
03.Сыктывкар
04.Чероки (Чужие люди)
05.Чих-Пых, поехали
06.Наган
07.Певичка
08.Монета
09.Чёрный ворон
10.Путанка
11.Мент, но не очень
12.Дядя барин
13.На новый срок
14.Электричка
15.Музыкальный анонс

Добавлена опция для восстановления 3%
EAC, FLAC, CUE, LOG, Covers
Сканы в архиве

Ссылка:

http://yadi.sk/d/T7GZMmkG0uIMT

Цитата:
Exact Audio Copy V0.99 prebeta 5 from 4. May 2009

Отчёт EAC об извлечении, выполненном 16. декабря 2009, 9:37

Яша Боярский / Малина

Дисковод: TSSTcorpCDDVDW SH-S223F Adapter: 2 ID: 0

Режим чтения : Достоверность
Использование точного потока : Да
Отключение кэша аудио : Да
Использование указателей C2 : Нет

Коррекция смещения при чтении : 6
Способность читать области Lead-in и Lead-out : Нет
Заполнение пропущенных сэмплов тишиной : Да
Удаление блоков с тишиной в начале и конце : Нет
При вычислениях CRC использовались нулевые сэмплы : Да
Интерфейс : Встроенный Win32-интерфейс для Win NT/2000

Выходной формат : Внутренние WAV-операции
Формат сэмплов : 44.100 Гц; 16 бит; стерео

TOC извлечённого CD

Трек | Старт | Длительность | Начальный сектор | Конечный сектор
---------------------------------------------------------------------
1 | 0:00.00 | 3:19.18 | 0 | 14942
2 | 3:19.18 | 4:04.41 | 14943 | 33283
3 | 7:23.59 | 4:51.57 | 33284 | 55165
4 | 12:15.41 | 2:24.23 | 55166 | 65988
5 | 14:39.64 | 3:00.22 | 65989 | 79510
6 | 17:40.11 | 4:39.61 | 79511 | 100496
7 | 22:19.72 | 4:16.16 | 100497 | 119712
8 | 26:36.13 | 3:08.19 | 119713 | 133831
9 | 29:44.32 | 2:51.58 | 133832 | 146714
10 | 32:36.15 | 3:38.24 | 146715 | 163088
11 | 36:14.39 | 3:43.55 | 163089 | 179868
12 | 39:58.19 | 2:14.23 | 179869 | 189941
13 | 42:12.42 | 4:17.00 | 189942 | 209216
14 | 46:29.42 | 3:37.68 | 209217 | 225559
15 | 50:07.35 | 4:06.01 | 225560 | 244010

Характеристики диапазона извлечения и сообщения об ошибках

Выбранный диапазон